<?xml version="1.0" standalone="no"?>
<!DOCTYPE svg PUBLIC "-//W3C//DTD SVG 1.1//EN" "http://www.w3.org/Graphics/SVG/1.1/DTD/svg11.dtd" >
<svg xmlns="http://www.w3.org/2000/svg" xmlns:xlink="http://www.w3.org/1999/xlink" version="1.1">
<metadata></metadata>
<defs>
<font id="roboto_monoregular" horiz-adv-x="1229" >
<font-face units-per-em="2048" ascent="1536" descent="-512" />
<missing-glyph horiz-adv-x="500" />
<glyph horiz-adv-x="0" />
<glyph horiz-adv-x="0" />
<glyph />
<glyph unicode="&#x9;" />
<glyph unicode=" " />
<glyph unicode="!" d="M690 471h-186v985h186v-985zM486 97q0 48 28.5 80t85.5 32t86.5 -32t29.5 -80q0 -46 -29.5 -77t-86.5 -31t-85.5 31t-28.5 77z" />
<glyph unicode="&#x22;" d="M505 1427l-21 -370h-130l1 354v125h150v-109zM862 1427l-21 -370h-129l1 354v125h150z" />
<glyph unicode="#" d="M707 410h-264l-80 -410h-143l80 410h-239v137h265l69 354h-258v139h285l82 416h143l-82 -416h264l82 416h143l-82 -416h205v-139h-232l-69 -354h226v-137h-252l-80 -410h-143zM469 547h264l69 354h-264z" />
<glyph unicode="$" d="M907 375q1 91 -66.5 156t-214.5 113q-93 29 -168 67t-128.5 90.5t-82.5 120.5t-29 157q0 84 25.5 152t72 118.5t113 81.5t147.5 41v220h149v-220q168 -23 261 -141.5t94 -322.5h-184q0 67 -16.5 123.5t-48 97t-77.5 63.5t-105 23q-121 0 -183 -63t-63 -170q0 -50 16 -89 t50.5 -71t89 -59.5t131.5 -53.5q94 -31 169 -69t127 -89t79.5 -118t27.5 -156q0 -87 -27.5 -156t-77.5 -118.5t-121.5 -79.5t-158.5 -39v-192h-149v191q-78 8 -149.5 36t-126.5 81.5t-88 134.5t-33 194h185q0 -84 25 -139.5t64.5 -88.5t89.5 -47t101 -14q65 0 117 16 t88 46.5t55.5 74t19.5 98.5z" />
<glyph unicode="%" d="M44 1194q0 57 17.5 108.5t51 90.5t83.5 61.5t115 22.5q66 0 116.5 -22.5t84 -61.5t51 -90.5t17.5 -108.5v-77q0 -57 -17.5 -108t-51 -89.5t-83.5 -61t-115 -22.5t-115.5 22.5t-84.5 61t-51.5 89.5t-17.5 108v77zM182 1117q0 -31 7 -59.5t23 -51t40.5 -36t60.5 -13.5 q35 0 59.5 13.5t39.5 36t22.5 51t7.5 59.5v77q0 31 -7.5 60.5t-23 52t-40 36t-60.5 13.5q-35 0 -59.5 -13.5t-40 -36t-22.5 -52t-7 -60.5v-77zM645 338q0 57 17.5 108t51.5 90t84 61.5t115 22.5q66 0 116 -22.5t84 -61.5t51.5 -90t17.5 -108v-78q0 -57 -17.5 -108 t-51.5 -89.5t-83.5 -61t-114.5 -22.5q-66 0 -116.5 22.5t-84.5 61t-51.5 89.5t-17.5 108v78zM783 260q0 -31 7.5 -60t23 -51.5t40.5 -36t61 -13.5q35 0 59.5 13.5t39.5 36t22 51.5t7 60v78q0 31 -7 60t-22.5 51.5t-40.5 36t-60 13.5q-36 0 -60.5 -13.5t-40 -36t-22.5 -51.5 t-7 -60v-78zM398 188l-111 62l567 1037l111 -62z" />
<glyph unicode="&#x26;" d="M107 373q0 67 20 124t56 106.5t86 94t111 87.5q-67 91 -106.5 172t-39.5 169q0 85 25.5 150.5t72.5 110t113 67.5t148 23q71 0 129 -25t98.5 -67.5t62.5 -98.5t22 -118q0 -53 -15.5 -96.5t-43 -81.5t-65.5 -72t-82 -67l-94 -80l307 -403q35 64 55 140t21 164h167 q0 -128 -36.5 -237.5t-106.5 -197.5l181 -237h-221l-83 110q-74 -63 -163 -96.5t-187 -33.5q-99 0 -179 29t-136 81t-86.5 124.5t-30.5 158.5zM539 130q71 0 137 26t123 74l-323 431l-28 -24q-50 -41 -81 -80t-47.5 -73.5t-22 -63t-5.5 -47.5q0 -51 16 -95t47 -77t77 -52 t107 -19zM420 1128q0 -56 25 -114.5t70 -123.5l117 93q31 21 51 44t31 46.5t15.5 47.5t4.5 47q0 30 -9.5 58.5t-28 50t-44.5 35t-59 13.5q-43 0 -75.5 -16t-54 -43t-32.5 -62.5t-11 -75.5z" />
<glyph unicode="'" d="M653 1425l-21 -368h-138l1 352v127h158v-111z" />
<glyph unicode="(" d="M357 591q0 143 22.5 269t60.5 233.5t87.5 196.5t104 158t109.5 118t105 77l39 -122q-62 -47 -123.5 -128t-110 -196.5t-79 -266t-30.5 -337.5v-14q0 -187 30.5 -338t79 -267t110 -198.5t123.5 -132.5l-39 -113q-50 28 -105.5 76.5t-110 118t-104 158t-87 196t-60 233.5 t-22.5 269v10z" />
<glyph unicode=")" d="M849 581q0 -143 -22.5 -269t-60.5 -233.5t-87.5 -196t-104 -158t-110 -118t-105.5 -76.5l-39 113q62 46 123.5 128.5t110 199.5t79 269t30.5 339v14q0 187 -32 339.5t-82.5 270t-111 199.5t-117.5 128l39 113q50 -28 105.5 -77t110 -118t104 -158t87.5 -196.5 t60.5 -233.5t22.5 -269v-10z" />
<glyph unicode="*" d="M537 683l-377 96l54 175l365 -151l-25 421h178l-29 -427l363 150l54 -178l-382 -94l256 -324l-146 -110l-214 363l-212 -354l-146 106z" />
<glyph unicode="+" d="M710 781h407v-184h-407v-451h-185v451h-406v184h406v425h185v-425z" />
<glyph unicode="," d="M643 43q0 -47 -11.5 -98.5t-34 -102t-54.5 -96.5t-74 -82l-115 63q48 70 68 149t20 164v179h201v-176z" />
<glyph unicode="-" horiz-adv-x="1230" d="M983 561h-765v152h765v-152z" />
<glyph unicode="." d="M496 120q0 30 9.5 56t27.5 45.5t45 30.5t63 11t63.5 -11t46 -30.5t28 -45.5t9.5 -56q0 -29 -9.5 -54.5t-28 -44.5t-46 -29.5t-63.5 -10.5t-63 10.5t-45 29.5t-27.5 44.5t-9.5 54.5z" />
<glyph unicode="/" d="M418 -125h-166l608 1581h165z" />
<glyph unicode="0" d="M1088 557q0 -139 -32 -246.5t-92 -181t-147 -111.5t-199 -38q-111 0 -198.5 38t-148.5 111.5t-93.5 181t-32.5 246.5v341q0 139 32 246.5t92.5 181.5t148 112.5t198.5 38.5q112 0 199.5 -38.5t148 -112.5t92.5 -181.5t32 -246.5v-341zM331 594l567 435 q-16 145 -84.5 220.5t-197.5 75.5q-146 0 -215.5 -98.5t-69.5 -287.5v-345zM902 852l-566 -433q17 -141 87 -215t195 -74q147 0 215.5 100t68.5 288v334z" />
<glyph unicode="1" d="M774 0h-185v1220l-381 -145v169l551 212h15v-1456z" />
<glyph unicode="2" d="M1067 0h-954v133l477 530q64 71 107 126t69 101.5t37 88t11 85.5q0 54 -17.5 101.5t-51 82.5t-81 55.5t-107.5 20.5q-73 0 -126.5 -21t-89 -59.5t-53 -93.5t-17.5 -123h-186q0 92 32 173.5t92.5 142.5t148 97t199.5 36q103 0 185.5 -30.5t139.5 -84.5t87.5 -128 t30.5 -161q0 -65 -22 -128.5t-59.5 -125.5t-87 -122.5t-104.5 -120.5l-391 -424h731v-151z" />
<glyph unicode="3" d="M390 817h132q70 0 123.5 19t90 52t55.5 79t19 101q0 127 -65 191.5t-190 64.5q-59 0 -107.5 -17.5t-83 -50.5t-53.5 -79t-19 -103h-186q0 83 32.5 156.5t91.5 128t141.5 86t183.5 31.5q98 0 179 -26.5t139 -78.5t90 -129t32 -178q0 -42 -13 -87t-40 -87.5t-69.5 -80 t-101.5 -62.5q71 -23 118.5 -60t76 -83t40 -97t11.5 -101q0 -102 -35 -181t-97 -133.5t-146.5 -83t-182.5 -28.5q-96 0 -180.5 27t-146.5 79t-98.5 127t-36.5 171h185q0 -57 19.5 -104t55.5 -80t87.5 -51t114.5 -18t114 16.5t87 50.5t55.5 84.5t19.5 119.5q0 68 -22.5 117.5 t-63 82.5t-98 49t-126.5 16h-132v150z" />
<glyph unicode="4" d="M924 489h203v-151h-203v-338h-185v338h-664v109l652 1009h197v-967zM280 489h459v721l-30 -56z" />
<glyph unicode="5" d="M240 730l73 726h747v-180h-591l-41 -388q43 25 103 44t139 19q101 0 181 -35t136 -98.5t86 -153.5t30 -200q0 -104 -28 -193t-84.5 -153.5t-142.5 -101t-202 -36.5q-89 0 -168 25t-140.5 75t-101 126t-49.5 177h176q17 -124 91.5 -188t191.5 -64q66 0 117 23.5t85.5 67 t52 104.5t17.5 136q0 68 -19.5 127t-56.5 102.5t-91 68.5t-124 25q-46 0 -79.5 -6.5t-60.5 -18.5t-50.5 -29t-48.5 -39z" />
<glyph unicode="6" d="M856 1457v-166h-16q-92 0 -164.5 -19t-127.5 -52t-94.5 -78.5t-65.5 -99.5t-40 -113t-18 -120q26 31 60 57.5t73.5 46t85 31t95.5 11.5q109 0 188 -41.5t130 -109.5t75 -154t24 -175q0 -102 -28.5 -192t-85.5 -157.5t-141.5 -106.5t-195.5 -39q-79 0 -144.5 23 t-117.5 62.5t-91 93.5t-64.5 116t-38.5 129t-13 134v87q0 100 12.5 200.5t42.5 192.5t81 172.5t128.5 139.5t184.5 93t250 34h16zM614 801q-47 0 -91 -15t-82 -42t-67 -65t-46 -84v-62q0 -96 23 -170.5t62 -125.5t90 -77.5t107 -26.5q65 0 115 25t84.5 69t52 105.5 t17.5 133.5q0 64 -16 124.5t-49 107.5t-83 75t-117 28z" />
<glyph unicode="7" d="M1096 1352l-603 -1352h-194l601 1294h-788v162h984v-104z" />
<glyph unicode="8" d="M1070 1076q-1 -109 -59 -194t-155 -133q56 -24 101.5 -59.5t78 -81.5t50 -100t17.5 -115q0 -99 -36.5 -176t-99 -129.5t-146.5 -80t-180 -27.5q-98 0 -182.5 27t-147 79.5t-98.5 129.5t-36 177q0 61 17 115.5t49 100t77 81.5t101 60q-48 24 -87 57.5t-66 75t-42 90.5 t-15 103q0 95 32 169.5t88.5 125.5t135 78t171.5 27q92 0 171 -27t137 -78t91 -125.5t33 -169.5zM918 397q0 61 -20.5 112t-57.5 87.5t-88.5 56.5t-112.5 20q-63 0 -114 -20t-87 -56.5t-55.5 -87.5t-19.5 -112q0 -63 19.5 -112.5t55.5 -83.5t87.5 -52t115.5 -18q61 0 112 18 t87.5 52t57 83.5t20.5 112.5zM884 1073q0 55 -18.5 101t-51 79.5t-77.5 52t-99 18.5t-98 -17.5t-76 -50.5t-49.5 -79.5t-17.5 -103.5t17.5 -102.5t50 -78t77 -50t98.5 -17.5q53 0 98 17.5t77.5 50t50.5 78.5t18 102z" />
<glyph unicode="9" d="M373 164q99 0 174 17.5t130.5 49.5t92.5 75.5t60.5 96t34.5 111t14 119.5q-24 -30 -55 -56.5t-70 -46.5t-86.5 -31.5t-103.5 -11.5q-108 0 -186.5 42.5t-129.5 111.5t-75 156t-24 175q0 103 28.5 194.5t85 160t141 109t196.5 40.5q84 0 151.5 -23.5t119 -65t88.5 -98 t60.5 -122t34.5 -137t11 -143.5v-67q0 -93 -9 -190.5t-35.5 -188.5t-74.5 -171.5t-125 -140.5t-187 -95t-261 -35h-19v165h19zM594 640q47 0 91.5 15.5t82 44t67 67t46.5 85.5v60q0 97 -22.5 173t-61 128.5t-89 80.5t-107.5 28q-65 0 -115 -26t-84.5 -71.5t-52.5 -108 t-18 -134.5q0 -64 16 -125.5t48.5 -109.5t82 -77.5t116.5 -29.5z" />
<glyph unicode=":" d="M546 120q0 30 9.5 56t27.5 45.5t45 30.5t63 11t63.5 -11t46 -30.5t28 -45.5t9.5 -56q0 -29 -9.5 -54.5t-28 -44.5t-46 -29.5t-63.5 -10.5t-63 10.5t-45 29.5t-27.5 44.5t-9.5 54.5zM546 996q0 30 9.5 56t27.5 45.5t45 30.5t63 11t63.5 -11t46 -30.5t28 -45.5t9.5 -56 q0 -29 -9.5 -54.5t-28 -44.5t-46 -29.5t-63.5 -10.5t-63 10.5t-45 29.5t-27.5 44.5t-9.5 54.5z" />
<glyph unicode=";" d="M537 996q0 30 9.5 56t27.5 45.5t45 30.5t63 11t63.5 -11t46 -30.5t28 -45.5t9.5 -56q0 -29 -9.5 -54.5t-28 -44.5t-46 -29.5t-63.5 -10.5t-63 10.5t-45 29.5t-27.5 44.5t-9.5 54.5zM775 43q0 -47 -11.5 -98.5t-34 -102t-54.5 -96.5t-74 -82l-115 63q48 70 68 149t20 164 v179h201v-176z" />
<glyph unicode="&#x3c;" d="M406 663l-53 -17l53 -18l612 -236v-196l-848 379v146l848 378v-196z" />
<glyph unicode="=" d="M1066 780h-893v161h893v-161zM1066 365h-893v160h893v-160z" />
<glyph unicode="&#x3e;" d="M178 909v191l883 -378v-146l-883 -379v192l647 244l60 17l-60 19z" />
<glyph unicode="?" d="M511 410q1 72 6 118.5t21 83t46 70t80 79.5q34 35 69.5 72t65 77.5t48.5 85.5t19 95q0 109 -63 166.5t-180 57.5q-47 0 -91.5 -11.5t-79 -36t-55.5 -62t-21 -89.5h-185q1 84 35 151t91.5 113.5t136 71t169.5 24.5q101 0 180.5 -25.5t134.5 -74.5t84 -119t29 -160 q0 -72 -25 -135.5t-64 -120t-87.5 -105.5t-95.5 -91q-30 -29 -46.5 -55t-24.5 -53t-10 -57.5t-2 -69.5h-185zM490 97q0 48 28.5 80t85.5 32t86.5 -32t29.5 -80q0 -46 -29.5 -77t-86.5 -31t-85.5 31t-28.5 77z" />
<glyph unicode="@" d="M1159 789q-3 -80 -19 -163.5t-48.5 -151.5t-83.5 -111t-125 -43q-61 0 -101.5 32t-57.5 89q-35 -56 -86.5 -88.5t-113.5 -32.5q-49 0 -85 26t-58.5 73t-31 112t-2.5 143q9 111 37 200.5t72.5 152t103.5 96t130 33.5q67 0 111 -26.5t70 -62.5l-44 -504q-3 -41 2 -66.5 t14.5 -40t23.5 -19.5t30 -5q37 0 65.5 28.5t47.5 77t29 113.5t11 138q4 127 -21 228t-76.5 171t-126.5 107t-171 37q-101 0 -184.5 -47.5t-144.5 -132.5t-96 -203t-39 -258q-5 -136 19 -242t77 -179.5t135.5 -112t194.5 -38.5q30 0 61 4.5t61 13t57 20.5t49 27l32 -117 q-25 -19 -57 -33t-67 -23.5t-71 -14t-68 -4.5q-147 0 -252.5 51.5t-172 144.5t-96 221.5t-24.5 281.5q4 103 25 200.5t57.5 182.5t88 155.5t115.5 121.5t140.5 79t162.5 28q122 0 217 -47.5t159.5 -135.5t96.5 -211.5t28 -274.5zM470 674q-5 -102 17 -159t70 -57q49 0 89 27 t70 90l39 445q-28 13 -58 13q-53 0 -92.5 -25.5t-66.5 -72t-43.5 -113t-24.5 -148.5z" />
<glyph unicode="A" d="M869 377h-486l-117 -377h-185l470 1456h155l462 -1456h-184zM433 538h387l-192 632z" />
<glyph unicode="B" d="M172 0v1456h433q90 -1 176 -23.5t153 -69.5t107 -120t39 -175q-1 -57 -18.5 -104t-48 -84.5t-71.5 -65.5t-87 -48q58 -17 106.5 -48.5t83.5 -76t54.5 -100.5t19.5 -121q1 -102 -39 -180t-107 -130.5t-154.5 -80.5t-180.5 -29h-466zM358 681v-524h285q58 1 110 19.5 t92 51.5t63.5 81t23.5 109q1 62 -20.5 110t-59.5 81.5t-89 51.5t-110 20h-295zM358 835h258q52 1 102 16.5t89 45t63 72.5t24 100q0 61 -23.5 104t-63 70.5t-91 40.5t-105.5 14h-253v-463z" />
<glyph unicode="C" d="M1117 438q-13 -101 -52 -185.5t-101.5 -145t-148 -94t-190.5 -33.5q-90 0 -163.5 25.5t-131 70.5t-99 106t-69 133t-41 151t-14.5 160v203q1 81 14.5 160t41 151t69 133.5t99 106.5t130.5 70.5t164 25.5q109 0 195 -33.5t148 -95t99.5 -147.5t49.5 -190h-185 q-9 66 -31 123t-59 100t-90.5 67.5t-126.5 24.5q-66 0 -116.5 -21.5t-87 -58.5t-61 -86t-39.5 -104t-21.5 -112.5t-6.5 -111.5v-205q0 -54 6.5 -111.5t21.5 -113t39 -104.5t61 -86.5t87 -59t117 -21.5q73 0 126.5 23t90.5 64.5t59 98t31 122.5h185z" />
<glyph unicode="D" d="M155 0v1456h337q152 -2 271.5 -51.5t202 -138t126 -212t44.5 -273.5v-107q-1 -150 -44.5 -273.5t-126 -212t-202 -138t-271.5 -50.5h-337zM343 1304v-1153h149q118 1 204 41.5t142.5 110.5t84 165t28.5 206v109q-1 111 -29 205.5t-84 164t-142 109.5t-204 42h-149z" />
<glyph unicode="E" d="M975 673h-608v-516h709v-157h-894v1456h885v-158h-700v-468h608v-157z" />
<glyph unicode="F" d="M984 643h-606v-643h-187v1456h894v-158h-707v-498h606v-157z" />
<glyph unicode="G" d="M1116 191q-92 -108 -211 -160t-261 -51q-90 1 -165.5 27.5t-135.5 73t-105 109.5t-75.5 136.5t-46 154t-16.5 162.5v169q1 81 14.5 161.5t41.5 154.5t70 137.5t100.5 110t132.5 73.5t166 27q102 0 188 -31.5t150 -90t103 -141t48 -184.5h-183q-11 63 -34 116.5 t-60.5 91.5t-89.5 59.5t-121 21.5q-66 0 -117 -22.5t-89 -60.5t-63 -88.5t-41 -106.5t-23 -114t-7 -112v-171q1 -55 9.5 -113.5t26.5 -114.5t46 -106t67.5 -88t91.5 -60.5t118 -23.5q38 -1 79.5 3t80.5 16t73 32.5t57 53.5l2 327h-296v156h472z" />
<glyph unicode="H" d="M1087 0h-175v673h-597v-673h-174v1456h174v-626h597v626h175v-1456z" />
<glyph unicode="I" d="M174 1456h880v-161h-349v-1135h349v-160h-880v160h341v1135h-341v161z" />
<glyph unicode="J" d="M857 1456h189v-1013q-2 -101 -38.5 -186t-99.5 -146.5t-148.5 -96t-186.5 -34.5q-102 0 -185.5 31t-145 88.5t-98.5 139t-46 182.5h188q3 -61 24.5 -113t58.5 -90.5t88.5 -59.5t115.5 -21q66 0 118 24.5t88.5 66.5t56 97.5t21.5 117.5v1013z" />
<glyph unicode="K" d="M523 676l-162 -184v-492h-189v1456h189v-711l141 176l427 535h225l-509 -637l543 -819h-225z" />
<glyph unicode="L" d="M383 157h712v-157h-897v1456h185v-1299z" />
<glyph unicode="M" d="M377 1456l237 -728l256 728h230v-1456h-180v581l15 608l-269 -784h-106l-247 763l15 -587v-581h-180v1456h229z" />
<glyph unicode="N" d="M1086 0h-188l-565 1088l-3 -1088h-187v1456h188l565 -1086l3 1086h187v-1456z" />
<glyph unicode="O" d="M1121 644q-1 -78 -13.5 -157.5t-38.5 -153.5t-66.5 -138t-96.5 -112t-128.5 -75.5t-162.5 -27.5t-162.5 27.5t-128.5 75.5t-97 112.5t-67.5 138.5t-39.5 153t-14 157v166q1 78 13.5 157.5t39 153.5t67 138.5t96.5 113t128.5 76t162.5 27.5t163 -27.5t129 -75.5 t96.5 -112.5t67 -138.5t39 -154t13.5 -158v-166zM938 812q-1 52 -7 108.5t-20.5 112t-38.5 106t-60 89t-85 61t-114 22.5q-64 0 -113 -23t-85 -61.5t-60 -89t-38.5 -106t-21 -112t-7.5 -107.5v-168q1 -51 7.5 -108t21.5 -112.5t39 -106.5t60 -89.5t85 -61.5t114 -23 t114.5 23t85 61.5t59 89t38 106t20 112.5t6.5 109v168z" />
<glyph unicode="P" d="M376 584v-584h-185v1456h472q98 -2 185.5 -31t153.5 -84t104.5 -136t38.5 -186t-38.5 -185.5t-104.5 -135.5t-153.5 -84t-185.5 -30h-287zM376 736h287q64 1 118 20.5t94 55.5t62.5 87.5t22.5 117.5t-22.5 119t-62 90t-94 57t-118.5 21h-287v-568z" />
<glyph unicode="Q" d="M1134 663q-1 -81 -14 -163t-39.5 -158t-68 -142.5t-99.5 -115.5l251 -209l-127 -121l-288 244q-62 -18 -134 -18q-93 0 -167 28.5t-131.5 77.5t-99.5 115.5t-69 142.5t-40 157.5t-14 161.5v128q1 80 14 162t40 158t68 142.5t98.5 116t132 78t167.5 28.5t167.5 -28.5 t132 -77.5t99 -115.5t68 -142.5t39.5 -158.5t14 -162.5v-128zM950 793q-1 55 -6.5 114.5t-20 117t-39 109.5t-61.5 91.5t-88.5 62.5t-120.5 23q-68 0 -119 -23.5t-88 -63t-61.5 -91.5t-39.5 -109.5t-21.5 -117t-6.5 -113.5v-130q0 -54 6.5 -113.5t21.5 -117.5t39.5 -110 t61.5 -92t88.5 -63.5t119.5 -23.5q69 0 120.5 23.5t88.5 63t61 91.5t38.5 110t20 117.5t6.5 114.5v130z" />
<glyph unicode="R" d="M656 594h-291v-594h-184v1456h427q102 -2 192 -29t157.5 -81t106 -135.5t38.5 -191.5q0 -71 -20.5 -130t-56.5 -107t-86 -85t-110 -63l309 -622l-1 -12h-195zM365 746h248q62 1 117 19.5t96.5 53.5t65.5 85.5t24 116.5q0 70 -23 122.5t-64 88t-97.5 53.5t-123.5 19h-243 v-558z" />
<glyph unicode="S" d="M936 368q0 67 -30.5 113t-78.5 77.5t-105.5 52.5t-110.5 38q-77 25 -156.5 60t-145 86t-107 120.5t-41.5 163.5t41.5 168t108.5 125t152 77.5t171 26.5q95 0 183 -31.5t156 -88.5t109 -138t43 -181h-190q-8 63 -31 114.5t-61 88.5t-90.5 57.5t-118.5 20.5 q-53 0 -103.5 -15t-90 -45t-63 -74t-23.5 -102q1 -63 32 -106.5t78.5 -73.5t103 -50t104.5 -35q54 -17 109 -38.5t106 -49.5t95 -63t77 -79.5t51.5 -98t18.5 -118.5q0 -98 -43.5 -171t-112.5 -121.5t-156 -73t-174 -24.5q-97 0 -190 30t-166.5 86.5t-119.5 138t-49 185.5 h189q9 -68 37 -120.5t72 -89t101.5 -55t125.5 -18.5q54 0 106.5 13.5t93.5 42t67 72t26 103.5z" />
<glyph unicode="T" d="M1156 1298h-450v-1298h-180v1298h-450v158h1080v-158z" />
<glyph unicode="U" d="M1088 1456l2 -986q-2 -102 -37 -191t-98 -155.5t-150 -105t-191 -38.5q-106 0 -193 38t-149 104.5t-97 156t-36 191.5l2 986h176l4 -986q1 -65 20.5 -125t56 -106t91 -74t125.5 -28t125 27.5t90.5 74t55.5 106.5t21 125l3 986h179z" />
<glyph unicode="V" d="M610 298l344 1158h197l-459 -1456h-161l-460 1456h198z" />
<glyph unicode="W" d="M896 394l111 1062h175l-177 -1456h-189l-187 1097l-189 -1097h-190l-177 1456h176l111 -1062l187 1062h161z" />
<glyph unicode="X" d="M625 885l314 571h218l-423 -722l433 -734h-216l-322 582l-323 -582h-219l434 734l-423 722h217z" />
<glyph unicode="Y" d="M603 725l332 731h210l-453 -913l-3 -543h-172l-3 543l-453 913h211z" />
<glyph unicode="Z" d="M325 157h754v-157h-963l-2 144l725 1154h-712v158h923l2 -141z" />
<glyph unicode="[" d="M822 1512h-221v-1672h221v-152h-396v1976h396v-152z" />
<glyph unicode="\" d="M231 1456h167l608 -1581h-167z" />
<glyph unicode="]" d="M405 1664h397v-1976h-397v152h222v1672h-222v152z" />
<glyph unicode="^" d="M403 677h-172l320 779h127l319 -779h-171l-198 486l-15 68l-15 -68z" />
<glyph unicode="_" d="M1072 -151h-917v151h917v-151z" />
<glyph unicode="`" d="M813 1215h-150l-248 266h223z" />
<glyph unicode="a" d="M885 0q-11 21 -17.5 52.5t-9.5 65.5q-28 -28 -62.5 -53t-76 -44t-88.5 -30t-100 -11q-86 0 -155.5 25t-118 67.5t-75 101t-26.5 126.5q0 89 35.5 156t100.5 111.5t156.5 66.5t204.5 22h202v85q0 49 -18 88t-51 66.5t-80.5 42.5t-106.5 15q-55 0 -98.5 -14t-73.5 -37 t-46.5 -54.5t-16.5 -65.5h-186q1 59 30.5 116t85 102.5t135 73.5t180.5 28q92 0 171 -22.5t136.5 -68t90.5 -113.5t33 -159v-503q0 -54 10 -114.5t28 -105.5v-16h-193zM558 141q54 0 101 14t85.5 37t66.5 52.5t44 61.5v219h-172q-162 0 -252 -48t-90 -151q0 -40 13.5 -74 t40.5 -58.5t68 -38.5t95 -14z" />
<glyph unicode="b" d="M1091 529q0 -116 -28 -216.5t-82 -174.5t-133.5 -116t-182.5 -42q-104 0 -180.5 37t-130.5 106l-9 -123h-170v1536h185v-570q53 66 128 101t175 35q104 0 184 -41t134 -114t82 -174.5t28 -222.5v-21zM906 550q0 79 -15.5 150.5t-49.5 126t-89 86.5t-135 32 q-48 0 -88 -12.5t-71.5 -35t-56 -53t-41.5 -66.5v-473q18 -36 42.5 -66.5t56.5 -53.5t72 -35.5t88 -12.5q76 0 130.5 31.5t89 85.5t51 125t16.5 150v21z" />
<glyph unicode="c" d="M635 130q50 0 97.5 16t84.5 44.5t59.5 67t23.5 83.5h175q-1 -72 -37.5 -137.5t-97.5 -115t-140 -79t-165 -29.5q-123 0 -215 44t-153.5 118.5t-92.5 172t-31 205.5v42q0 107 31 205t92.5 172.5t153.5 118.5t215 44q96 0 176.5 -30.5t139 -83t91.5 -124.5t33 -154h-175 q-1 49 -21.5 92.5t-55.5 76.5t-83.5 52t-104.5 19q-86 0 -144.5 -34.5t-94.5 -90t-51.5 -124.5t-15.5 -139v-42q0 -71 15.5 -140.5t51 -125t94 -90t145.5 -34.5z" />
<glyph unicode="d" d="M139 550q0 121 30.5 222.5t87 174.5t136.5 114t179 41q97 0 169.5 -32.5t125.5 -94.5v561h185v-1536h-170l-8 114q-54 -66 -129 -100t-175 -34q-98 0 -177.5 42t-135.5 116t-87 174.5t-31 216.5v21zM324 529q0 -79 17 -150t52.5 -125t90.5 -85.5t132 -31.5q47 0 85 11 t69 31.5t55 49t42 63.5v502q-36 66 -97 108.5t-152 42.5q-78 0 -133.5 -32t-91 -86.5t-52.5 -126t-17 -150.5v-21z" />
<glyph unicode="e" d="M652 -20q-114 0 -209.5 39t-163.5 109t-106 166t-38 209v42q0 131 42 234.5t111.5 175t158 109.5t181.5 38q117 0 204.5 -40.5t145.5 -112t86.5 -168.5t28.5 -210v-83h-773q3 -74 28.5 -139t70 -113.5t106.5 -76.5t137 -28q99 0 176 40t128 106l113 -88 q-27 -41 -67.5 -78.5t-93.5 -66.5t-120 -46.5t-146 -17.5zM628 950q-56 0 -106 -20.5t-90 -60t-67.5 -97t-38.5 -132.5h582v14q-3 54 -20.5 107t-51.5 95t-85.5 68t-122.5 26z" />
<glyph unicode="f" horiz-adv-x="1230" d="M450 0v939h-298v143h298v76q0 104 30.5 182.5t86 131.5t133.5 80t174 27q66 0 128.5 -11t128.5 -28l-22 -153q-41 14 -95.5 24.5t-116.5 10.5q-130 -1 -195.5 -66t-65.5 -198v-76h417v-143h-417v-939h-186z" />
<glyph unicode="g" d="M140 550q0 121 29.5 222.5t85.5 174.5t136 114t181 41q100 0 175.5 -35.5t128.5 -102.5l9 118h168v-1059q0 -107 -33.5 -190t-94 -141t-144.5 -88t-186 -30q-42 0 -96 9.5t-109.5 31t-107 57.5t-88.5 89l96 111q34 -41 70 -69.5t73 -45.5t74 -24.5t74 -7.5q66 0 119 19 t90.5 55.5t57.5 90.5t20 124v93q-54 -62 -127.5 -94.5t-170.5 -32.5q-99 0 -179 42t-135.5 116t-85.5 174.5t-30 216.5v21zM325 529q0 -79 16.5 -150t52 -125t90.5 -85.5t132 -31.5q48 0 86.5 11.5t69 32.5t54.5 50t42 64v496q-18 34 -42 62t-55 48.5t-69 32t-84 11.5 q-78 0 -133.5 -32t-91 -86.5t-52 -126t-16.5 -150.5v-21z" />
<glyph unicode="h" d="M359 921q58 85 143 132.5t191 48.5q85 0 154.5 -24.5t118.5 -76.5t75.5 -131.5t26.5 -188.5v-681h-185v683q0 133 -63.5 198t-181.5 64q-89 0 -161.5 -43.5t-117.5 -115.5v-786h-185v1536h185v-615z" />
<glyph unicode="i" d="M203 1082h553v-922h353v-160h-906v160h368v761h-368v161zM547 1366q0 46 27.5 77.5t83.5 31.5q55 0 83 -31.5t28 -77.5q0 -45 -28 -75t-83 -30q-56 0 -83.5 30t-27.5 75z" />
<glyph unicode="j" d="M299 1082h546v-1089q0 -104 -28.5 -184t-83 -134.5t-133 -83t-178.5 -28.5q-57 0 -106.5 3.5t-104.5 13.5l13 152q17 -3 43 -5.5t52.5 -4t51 -2t38.5 -0.5q52 0 98 13.5t80 45.5t53.5 84.5t19.5 129.5v928h-361v161zM634 1367q0 45 27 76.5t83 31.5t84 -31.5t28 -76.5 t-28 -75.5t-84 -30.5t-83 30.5t-27 75.5z" />
<glyph unicode="k" d="M498 505l-136 -131v-374h-186v1536h186v-940l121 130l355 356h225l-438 -451l505 -631h-235z" />
<glyph unicode="l" d="M203 1536h553v-1376h353v-160h-906v160h368v1215h-368v161z" />
<glyph unicode="m" d="M259 1082l5 -102q33 57 86.5 89t129.5 33q149 0 199 -116q32 52 84.5 83.5t127.5 32.5q119 0 183 -73t64 -221v-808h-176v810q0 136 -125 135q-33 0 -57 -9t-40 -24.5t-25 -36t-12 -42.5v-833h-176v811q0 65 -29 100t-92 34q-58 0 -90 -23t-47 -61v-861h-176v1082h166z " />
<glyph unicode="n" d="M340 1082l13 -160q59 84 145 131.5t192 48.5q85 0 154.5 -24t118.5 -75t75.5 -129.5t26.5 -186.5v-687h-185v683q0 72 -16 122t-47.5 81t-77 45t-104.5 14q-93 0 -163.5 -46.5t-112.5 -122.5v-776h-185v1082h166z" />
<glyph unicode="o" d="M122 551q0 117 34 217.5t97.5 174.5t154.5 116.5t205 42.5q115 0 206.5 -42.5t155 -116.5t97.5 -174.5t34 -217.5v-22q0 -117 -34 -217t-97.5 -174t-154.5 -116t-205 -42q-115 0 -206.5 42t-155 116t-97.5 174t-34 217v22zM307 529q0 -80 19 -152.5t57.5 -127.5t96.5 -87 t135 -32q76 0 133.5 32t96 87t57.5 127.5t19 152.5v22q0 79 -19.5 151.5t-58 127.5t-96 87.5t-134.5 32.5t-134 -32.5t-95.5 -87.5t-57.5 -127.5t-19 -151.5v-22z" />
<glyph unicode="p" d="M1087 529q0 -116 -28 -216.5t-82 -174.5t-133.5 -116t-181.5 -42q-99 0 -174.5 32t-129.5 92v-520h-185v1498h169l9 -118q54 67 130.5 102.5t177.5 35.5q104 0 184 -41t134 -114t82 -174.5t28 -222.5v-21zM902 550q0 79 -17.5 150.5t-54 126t-92.5 86.5t-134 32 q-89 0 -149.5 -41.5t-96.5 -106.5v-521q36 -64 96 -104.5t152 -40.5q77 0 133 32.5t92 87.5t53.5 127t17.5 151v21z" />
<glyph unicode="q" d="M140 550q0 121 29 222.5t85 174.5t137.5 114t185.5 41q96 0 169.5 -32.5t127.5 -94.5l8 107h170v-1498h-185v514q-54 -57 -126 -87.5t-166 -30.5q-103 0 -183.5 42t-136.5 116t-85.5 174.5t-29.5 216.5v21zM325 529q0 -79 17.5 -151t53.5 -127t91.5 -87.5t132.5 -32.5 q89 0 149 40t98 104v534q-19 31 -43.5 56.5t-55 44.5t-67 29.5t-79.5 10.5q-77 0 -133 -33t-92.5 -88.5t-54 -127.5t-17.5 -151v-21z" />
<glyph unicode="r" d="M883 1102q26 0 54 -1.5t53.5 -5t47 -8.5t35.5 -11l-25 -181q-54 12 -102.5 17.5t-101.5 5.5q-130 0 -210.5 -59t-118.5 -165v-694h-186v1082h176l9 -172q66 89 158.5 140.5t210.5 51.5z" />
<glyph unicode="s" d="M893 287q0 33 -13 59.5t-44 48.5t-82 40.5t-127 33.5q-93 19 -169.5 46t-131 64.5t-84.5 88t-30 117.5q0 66 31 123.5t87 100.5t133.5 68t170.5 25q100 0 180 -26t136 -72t86.5 -107.5t30.5 -132.5h-185q0 35 -18 68.5t-50 59.5t-77.5 42t-102.5 16q-59 0 -103.5 -13 t-74 -35t-44.5 -51t-15 -60q0 -32 12 -57t41.5 -45t79 -36t125.5 -31q100 -21 179 -48.5t133 -66t82.5 -89.5t28.5 -118q0 -72 -32.5 -131t-90.5 -101t-139 -65t-177 -23q-110 0 -196 29.5t-145.5 78t-91 112.5t-31.5 133h185q4 -57 30.5 -96t66 -63t87.5 -34t95 -10 q117 0 185 43t69 114z" />
<glyph unicode="t" d="M612 1344v-262h412v-143h-412v-588q0 -63 16 -104t44 -65.5t64.5 -34.5t77.5 -10q30 0 62 3.5t62.5 8.5t57 10.5t43.5 9.5l26 -131q-23 -14 -56 -24.5t-72 -18t-82.5 -11.5t-86.5 -4q-72 0 -134.5 20.5t-108.5 65t-72.5 115t-26.5 170.5v588h-284v143h284v262h186z" />
<glyph unicode="u" d="M876 149q-54 -80 -135 -124.5t-187 -44.5q-85 0 -154 26.5t-118 82.5t-75.5 142.5t-26.5 207.5v643h185v-645q0 -88 14 -146t42 -92.5t68.5 -48.5t93.5 -14q113 0 182.5 46t103.5 124v776h186v-1082h-168z" />
<glyph unicode="v" d="M598 266l17 -67l18 67l303 816h189l-441 -1082h-141l-445 1082h190z" />
<glyph unicode="w" d="M338 392l22 -155l27 155l173 690h119l172 -690l29 -170l27 170l120 690h164l-230 -1082h-146l-169 663l-28 168l-27 -168l-167 -663h-146l-230 1082h164z" />
<glyph unicode="x" d="M621 681l289 401h217l-403 -535l414 -547h-214l-299 412l-299 -412h-216l414 547l-403 535h214z" />
<glyph unicode="y" d="M572 384l48 -131l330 829h207l-549 -1249q-19 -42 -48.5 -89t-71.5 -87t-98 -67t-129 -27q-13 0 -29 1.5t-32 4t-30 5.5t-23 5l30 151q7 0 19 -1t25 -2t25 -1.5t19 -0.5q38 0 69.5 21t56 50t42 60t27.5 51l74 144l-466 1031h207z" />
<glyph unicode="z" d="M396 151h689v-151h-925v136l646 793h-637v153h880v-131z" />
<glyph unicode="{" d="M978 -366q-65 2 -118 22t-95 54t-72.5 79t-51 96.5t-30.5 106t-10 107.5v169q0 144 -68.5 209t-209.5 66v145q141 0 209.5 64.5t68.5 209.5v170q0 53 9 107.5t28 106t48.5 96.5t71.5 79t96.5 54t123.5 22l21 -115q-72 -2 -114.5 -34t-64 -81.5t-27.5 -111.5t-6 -123v-170 q-1 -120 -56 -210.5t-171 -137.5q116 -46 171 -136.5t56 -209.5v-169q0 -62 10 -123.5t34.5 -111t65 -81.5t102.5 -34z" />
<glyph unicode="|" d="M689 -398h-149v1854h149v-1854z" />
<glyph unicode="}" d="M323 -251q61 2 102 34t65.5 81.5t35 111t10.5 123.5v169q0 119 55 209.5t171 136.5q-116 47 -171 137.5t-55 210.5v170q0 61 -6.5 123t-28 111.5t-63.5 81.5t-114 34l20 115q69 -2 123.5 -22t96.5 -54t71.5 -79t48.5 -96.5t28 -106t9 -107.5v-170q0 -145 69 -209.5 t209 -64.5v-145q-140 -1 -209 -66t-69 -209v-169q0 -80 -22 -161.5t-68.5 -148.5t-117.5 -110t-169 -45z" />
<glyph unicode="~" d="M1180 740q0 -66 -22 -127t-62 -108t-95 -75t-122 -28q-47 0 -87.5 9t-79 27t-76 44t-77.5 60q-55 45 -105 71.5t-106 25.5q-35 0 -65.5 -14.5t-52.5 -39t-35 -58t-13 -71.5l-134 17q0 66 22 126t61.5 105t94.5 71.5t122 26.5q46 0 87.5 -9.5t80.5 -27.5t76.5 -44 t76.5 -58q57 -48 105.5 -73.5t104.5 -24.5q35 0 65.5 16t53 42.5t35.5 61.5t13 73z" />
<glyph unicode="&#xa0;" />
<glyph unicode="&#xa1;" d="M522 611h185v-983h-185v983zM728 990q0 -46 -29.5 -77.5t-85.5 -31.5q-57 0 -86 31.5t-29 77.5q0 48 29 80.5t86 32.5q56 0 85.5 -32.5t29.5 -80.5z" />
<glyph unicode="&#xa2;" d="M639 130q50 0 97.5 16t84.5 44.5t59.5 67t23.5 83.5h175q-1 -64 -30 -122.5t-78 -106t-114.5 -80.5t-138.5 -45v-232h-185v235q-96 18 -168.5 67.5t-120.5 120.5t-72.5 159t-24.5 183v42q0 95 24.5 182.5t72.5 159t120.5 121t168.5 67.5v226h185v-222q80 -12 146 -46.5 t114 -85.5t74.5 -116t26.5 -138h-175q-1 49 -21.5 92.5t-55.5 76.5t-83.5 52t-104.5 19q-86 0 -144.5 -34.5t-94.5 -90t-51.5 -124.5t-15.5 -139v-42q0 -71 15.5 -140.5t51 -125t94 -90t145.5 -34.5z" />
<glyph unicode="&#xa3;" d="M463 626l8 -226q0 -69 -14.5 -135t-46.5 -114h738l-1 -151h-1030v151h75q27 7 45.5 35t29.5 64.5t15 77t4 72.5l-8 226h-165v152h160l-9 261q0 102 33.5 183t92.5 137.5t141 86.5t178 30t172 -28t128.5 -79t80.5 -122t28 -158h-186q0 63 -19.5 107.5t-53 73t-77 42 t-91.5 13.5q-51 0 -95.5 -19.5t-76.5 -56t-50.5 -90t-18.5 -120.5l8 -261h320v-152h-315z" />
<glyph unicode="&#xa4;" d="M931 84q-62 -50 -137 -77t-160 -27t-159.5 27t-136.5 75l-104 -108l-131 135l112 115q-38 63 -58 136.5t-20 154.5q0 86 22 163t64 142l-120 124l131 135l117 -122q60 44 131.5 68t151.5 24t152 -24.5t132 -69.5l120 125l132 -136l-124 -128q40 -64 62 -140t22 -161 q0 -80 -20 -152.5t-56 -134.5l116 -119l-132 -136zM309 515q0 -74 25 -140t68.5 -115.5t103 -79t128.5 -29.5t128 29.5t102.5 79t68 115.5t24.5 140t-24.5 140t-68 115.5t-102.5 78.5t-128 29t-128.5 -29t-103 -78.5t-68.5 -115.5t-25 -140z" />
<glyph unicode="&#xa5;" d="M614 779l369 677h212l-421 -720h318v-121h-388l-1 -2v-167h389v-120h-389v-326h-185v326h-380v120h380v169h-380v121h316l-421 720h212z" />
<glyph unicode="&#xa6;" d="M511 -270v791h185v-791h-185zM696 698h-185v758h185v-758z" />
<glyph unicode="&#xa7;" d="M1140 431q0 -97 -49 -166t-137 -109q69 -48 105.5 -116t36.5 -168q0 -88 -35.5 -156t-100 -115t-154 -71.5t-198.5 -24.5q-98 0 -191.5 22.5t-166.5 73t-118 133t-45 202.5l185 2q0 -78 30 -131.5t78 -87t108 -48t120 -14.5q70 0 126 16t95.5 44t60.5 67t21 86 q0 48 -19 83t-61 63.5t-108.5 54.5t-162.5 55q-106 29 -192.5 63.5t-147.5 83.5t-94 116t-33 162q0 94 48 163.5t134 110.5q-66 49 -101.5 117t-35.5 168q0 84 35.5 151.5t99.5 115.5t154 73.5t199 25.5q114 0 205 -28.5t154.5 -83t98 -135t34.5 -184.5h-185 q0 58 -20.5 109.5t-59.5 89t-96.5 59.5t-130.5 22q-75 0 -131.5 -16.5t-95 -45t-57.5 -67.5t-19 -84q0 -52 17 -88t57.5 -64.5t107.5 -53t167 -52.5q108 -30 194.5 -65t147.5 -83t93.5 -114.5t32.5 -160.5zM598 691q-45 12 -85.5 24.5t-77.5 26.5q-78 -18 -117.5 -68 t-39.5 -121q0 -53 18 -90t59 -66.5t109 -54.5t168 -53q44 -13 84 -25t77 -26q76 20 119 69.5t44 120.5q0 48 -20 84.5t-63 66.5t-111 56.5t-164 55.5z" />
<glyph unicode="&#xa8;" d="M287 1371q0 45 27.5 75.5t81.5 30.5t82 -30.5t28 -75.5t-28 -75t-82 -30t-81.5 30t-27.5 75zM717 1369q0 45 27.5 76t81.5 31t82 -31t28 -76q0 -44 -28 -74.5t-82 -30.5t-81.5 30.5t-27.5 74.5z" />
<glyph unicode="&#xa9;" d="M862 443q0 -116 -65.5 -175.5t-183.5 -59.5q-62 0 -110 22t-81 60.5t-51 91.5t-18 116v87q0 62 18 115.5t51 92.5t81 61t110 22q118 0 184 -60t66 -175h-110q-1 71 -34.5 104t-105.5 33q-38 0 -66.5 -15t-47.5 -40.5t-28 -61t-9 -75.5v-88q0 -41 9 -76t28 -61t47.5 -41 t66.5 -15q72 0 105 33t34 105h110zM177 542q0 -98 34 -184.5t94 -151t141.5 -101.5t176.5 -37q94 0 175.5 37.5t141.5 102t94 150.5t34 184q0 97 -34 182.5t-94 149.5t-141.5 100.5t-175.5 36.5q-95 0 -176.5 -36.5t-141.5 -100.5t-94 -149.5t-34 -182.5zM90 542 q0 78 18.5 149.5t52.5 134t82.5 113.5t107.5 87t128 56t144 20q113 0 210 -44t168.5 -119.5t112.5 -177.5t41 -219t-41 -219.5t-112.5 -179t-168.5 -120.5t-210 -44t-210.5 44t-169 120.5t-112.5 179t-41 219.5z" />
<glyph unicode="&#xaa;" d="M780 705q-15 44 -21 97q-30 -43 -86 -76.5t-140 -34.5q-118 0 -183.5 61t-65.5 166q0 112 86.5 171.5t244.5 59.5h141v52q-1 65 -32 100t-94 35q-67 0 -107.5 -26.5t-41.5 -78.5l-161 12q1 51 23.5 94t63 74t97.5 48t126 17q65 0 118.5 -17.5t91 -52t58.5 -86.5t21 -120 v-314q0 -48 6 -92t20 -89h-165zM572 828q27 0 56.5 8.5t55 23t45 32.5t27.5 36v109h-140q-79 0 -124.5 -33t-45.5 -82q0 -45 32 -69.5t94 -24.5z" />
<glyph unicode="&#xab;" d="M390 515l258 -397h-141l-295 388v19l295 389h141zM725 515l258 -397h-141l-295 388v19l295 389h141z" />
<glyph unicode="&#xac;" d="M1019 375h-185v264h-645v161h830v-425z" />
<glyph unicode="&#xad;" horiz-adv-x="1230" d="M983 561h-765v152h765v-152z" />
<glyph unicode="&#xae;" d="M87 540q0 117 41 219.5t112.5 178.5t169 119.5t210.5 43.5t210 -43.5t168.5 -119.5t112.5 -178.5t41 -219.5t-41 -219.5t-112.5 -178t-168.5 -119.5t-210 -44t-210.5 44t-169 119.5t-112.5 178t-41 219.5zM174 540q0 -98 34 -183.5t94 -149.5t141.5 -101t176.5 -37 q94 0 175.5 37t141.5 101t94 149.5t34 183.5t-34 184t-94 149.5t-141.5 100t-175.5 36.5q-95 0 -176.5 -36.5t-141.5 -100t-94 -149.5t-34 -184zM508 485v-253h-107v635h211q55 0 99 -12t75.5 -36t48.5 -60t17 -84q0 -56 -35 -95t-101 -61l147 -287h-110l-120 253h-125z M508 582h119q48 1 83 24t35 65q0 55 -30 77t-103 22h-104v-188z" />
<glyph unicode="&#xaf;" d="M971 1313h-714v143h714v-143z" />
<glyph unicode="&#xb0;" d="M361 1216q0 53 20.5 100.5t55 83t81 56t98.5 20.5q51 0 96.5 -20.5t79.5 -56t54 -83t20 -100.5t-20 -100t-54 -81.5t-79.5 -54.5t-96.5 -20q-52 0 -98.5 20t-81 54.5t-55 81t-20.5 100.5zM485 1216q0 -27 10.5 -50.5t28 -41t41.5 -27t51 -9.5t50 9.5t40.5 27t27 41 t9.5 50.5q0 28 -9.5 52.5t-27 42.5t-40.5 28t-50 10t-51 -10t-41.5 -28t-28 -42.5t-10.5 -52.5z" />
<glyph unicode="&#xb1;" d="M709 855h363v-152h-363v-414h-168v414h-385v152h385v412h168v-412zM1030 1h-835v151h835v-151z" />
<glyph unicode="&#xb2;" d="M934 667h-599v108l288 271q65 60 93 103.5t28 78.5q0 49 -33 79.5t-91 30.5q-74 0 -109.5 -37.5t-36.5 -95.5h-158q0 54 21 102t60 83.5t94.5 56t124.5 20.5q66 0 119 -16.5t90 -47.5t57 -74.5t20 -98.5q0 -40 -13.5 -75.5t-39 -70t-61 -70t-78.5 -74.5l-175 -145h399 v-128z" />
<glyph unicode="&#xb3;" d="M526 1125h84q70 0 108 29t38 80q0 45 -33 74t-100 29q-57 0 -94 -24t-38 -68h-157q0 51 22.5 92t61 69.5t90.5 44t112 15.5q64 0 118 -14.5t93 -43t60.5 -70.5t21.5 -97q0 -56 -35.5 -101t-100.5 -70q150 -42 150 -184q0 -56 -23.5 -99t-65 -72t-97.5 -44.5t-120 -15.5 q-57 0 -110.5 13.5t-95 42t-67 72.5t-25.5 105h158q1 -46 40.5 -75.5t104.5 -29.5q68 0 106 30t37 81q0 63 -43.5 89t-115.5 26h-84v116z" />
<glyph unicode="&#xb4;" d="M594 1481h224l-268 -266h-140z" />
<glyph unicode="&#xb5;" d="M373 1082v-622q0 -100 16 -164t45.5 -101t70 -51t88.5 -14q107 0 169.5 41t91.5 112v799h186v-1082h-167l-9 116q-44 -65 -108.5 -100.5t-154.5 -35.5q-146 0 -228 73v-469h-185v1498h185z" />
<glyph unicode="&#xb6;" d="M790 0v520h-87q-118 0 -209.5 35t-154.5 97t-95.5 148t-32.5 188q0 101 32.5 186.5t95.5 148t154.5 98t209.5 35.5h273v-1456h-186z" />
<glyph unicode="&#xb7;" d="M504 729q0 48 29 80t86 32q56 0 85.5 -32t29.5 -80q0 -47 -29.5 -78.5t-85.5 -31.5q-57 0 -86 31.5t-29 78.5z" />
<glyph unicode="&#xb8;" d="M630 0l-12 -52q29 -5 56.5 -17t49 -32t34.5 -50.5t13 -73.5q0 -97 -79 -153t-224 -57l-7 107q34 0 64 5.5t52.5 17.5t36 30.5t13.5 45.5q0 25 -10 42t-30.5 27.5t-50.5 16.5t-70 9l31 134h133z" />
<glyph unicode="&#xb9;" d="M758 665h-157v601l-215 -57v128l354 117h18v-789z" />
<glyph unicode="&#xba;" d="M272 1141q0 73 24 134.5t68.5 106t107.5 69.5t142 25t142.5 -25t108 -69.5t68 -106t23.5 -134.5v-117q0 -72 -23.5 -133.5t-67.5 -106t-107 -69.5t-142 -25q-80 0 -143.5 25t-108 69.5t-68.5 106t-24 133.5v117zM435 1024q0 -42 11 -77.5t33.5 -61.5t56.5 -41t80 -15 q44 0 77.5 15t55.5 41t33.5 61.5t11.5 77.5v117q0 41 -11.5 76.5t-34 62t-56 41.5t-78.5 15t-78.5 -15t-56 -41.5t-33.5 -62t-11 -76.5v-117z" />
<glyph unicode="&#xbb;" d="M383 949l294 -389v-19l-294 -389h-142l258 398l-258 399h142zM728 949l294 -389v-19l-294 -389h-142l258 398l-258 399h142z" />
<glyph unicode="&#xbc;" d="M383.117 751h-141.304v540.915l-193.505 -51.3018v115.203l318.608 105.303h16.2002v-710.119zM402 221l-113 66l513 954l114 -66zM1068.12 269.107h96.3027v-117.003h-96.3027v-152.104h-141.304v152.104h-337.509l-5.40039 91.8018l339.31 466.213h144.903v-441.012z M726.111 269.107h200.705v260.107l-15.3008 -25.2012z" />
<glyph unicode="&#xbd;" d="M342 221l-113 66l513 954l114 -66zM371.117 747h-141.304v540.915l-193.505 -51.3018v115.203l318.608 105.303h16.2002v-710.119zM1173.82 0h-539.114v97.2031l259.207 243.906q58.502 54.001 83.7021 93.1523q25.2012 39.1514 25.2012 70.6523 q0 44.1006 -29.7012 71.5518q-29.7012 27.4502 -81.9023 27.4502q-66.6016 0 -98.5527 -33.751q-31.9502 -33.751 -32.8506 -85.9521h-142.204q0 48.6016 18.9004 91.8027t54.002 75.1523q35.1006 31.9502 85.0518 50.4014q49.9521 18.4502 112.054 18.4502 q59.4014 0 107.103 -14.8506t81.002 -42.751q33.3018 -27.9004 51.3018 -67.0518t18 -88.6523q0 -36.001 -12.1494 -67.9521q-12.1504 -31.9512 -35.1016 -63.002q-22.9502 -31.0508 -54.9014 -63.001q-31.9512 -31.9512 -70.6523 -67.0518l-157.504 -130.504h359.109 v-115.203z" />
<glyph unicode="&#xbe;" d="M469 220l-113 66l513 954l114 -66zM1101.12 269.107h96.3027v-117.003h-96.3027v-152.104h-141.304v152.104h-337.509l-5.40039 91.8018l339.31 466.213h144.903v-441.012zM759.111 269.107h200.705v260.107l-15.3008 -25.2012zM220.513 1157.11h75.6016 q63.002 0 97.2031 26.1006t34.2012 72.002q0 40.501 -29.7012 66.6016t-90.0029 26.1006q-51.3008 0 -84.6016 -21.6006t-34.2012 -61.2012h-141.304q0 45.9014 20.25 82.8018q20.251 36.9014 54.9023 62.5518q34.6504 25.6514 81.4521 39.6016 q46.8008 13.9502 100.803 13.9502q57.6016 0 106.202 -13.0508q48.6016 -13.0498 83.7021 -38.7002q35.1016 -25.6514 54.4521 -63.4521t19.3506 -87.3027q0 -50.4014 -31.9512 -90.9023t-90.4521 -63.002q135.003 -37.8008 135.003 -165.604q0 -50.4023 -21.1504 -89.1025 q-21.1504 -38.7012 -58.501 -64.8018q-37.3516 -26.1016 -87.7529 -40.0518t-108.003 -13.9502q-51.3008 0 -99.4521 12.1504t-85.5029 37.8008q-37.3506 25.6514 -60.3018 65.252q-22.9502 39.6016 -22.9502 94.5029h142.204q0.899414 -41.4014 36.4512 -67.9521 q35.5508 -26.5508 94.0518 -26.5508q61.2021 0 95.4033 27.001q34.2002 27.001 33.3008 72.9014q0 56.7021 -39.1514 80.1025t-103.953 23.4004h-75.6016v104.403z" />
<glyph unicode="&#xbf;" d="M724 673q-1 -71 -5.5 -117t-19.5 -82t-44.5 -69.5t-78.5 -78.5q-31 -35 -64 -72.5t-60.5 -78.5t-45 -86t-17.5 -96q0 -109 58 -166.5t167 -57.5q43 0 83.5 11.5t72 36t50.5 62t19 89.5h185q-1 -84 -32.5 -151t-86.5 -113.5t-129.5 -71t-161.5 -24.5q-97 0 -173.5 25.5 t-129 74.5t-80 119t-27.5 160q0 72 23.5 136t60 120.5t82 106t90.5 92.5q29 29 45 54t23.5 51.5t9 56.5t1.5 69h185zM509 988q0 48 29 80.5t86 32.5t86 -32.5t29 -80.5q0 -46 -29 -77.5t-86 -31.5t-86 31.5t-29 77.5z" />
<glyph unicode="&#xc0;" d="M869 377h-486l-117 -377h-185l470 1456h155l462 -1456h-184zM433 538h387l-192 632zM710 1561h-150l-248 266h223z" />
<glyph unicode="&#xc1;" d="M869 377h-486l-117 -377h-185l470 1456h155l462 -1456h-184zM433 538h387l-192 632zM727 1824h224l-268 -266h-140z" />
<glyph unicode="&#xc2;" d="M869 377h-486l-117 -377h-185l470 1456h155l462 -1456h-184zM433 538h387l-192 632zM933 1624v-25h-154l-150 151l-149 -151h-152v26l245 239h112z" />
<glyph unicode="&#xc3;" d="M869 377h-486l-117 -377h-185l470 1456h155l462 -1456h-184zM433 538h387l-192 632zM973 1844q0 -45 -15.5 -86t-42.5 -71.5t-65 -48.5t-83 -18q-33 0 -59 7t-47.5 17.5t-40.5 23t-38.5 23t-41.5 17.5t-49 7q-44 0 -72.5 -32.5t-29.5 -78.5l-104 24q0 45 15.5 86.5 t42.5 73t64.5 50.5t83.5 19q42 0 75.5 -15t65 -32.5t64 -32.5t71.5 -15q21 0 40 9t32.5 24t22 35.5t8.5 43.5z" />
<glyph unicode="&#xc4;" d="M869 377h-486l-117 -377h-185l470 1456h155l462 -1456h-184zM433 538h387l-192 632zM302 1718q0 45 27.5 75.5t81.5 30.5t82 -30.5t28 -75.5t-28 -75t-82 -30t-81.5 30t-27.5 75zM732 1716q0 45 27.5 76t81.5 31t82 -31t28 -76q0 -44 -28 -74.5t-82 -30.5t-81.5 30.5 t-27.5 74.5z" />
<glyph unicode="&#xc5;" d="M869 377h-486l-117 -377h-185l470 1456h155l462 -1456h-184zM433 538h387l-192 632zM424 1732q0 43 16.5 79.5t44 63t65 41.5t79.5 15t78.5 -15t64 -41.5t43.5 -63t16 -79.5t-16 -79t-43.5 -61.5t-64 -39.5t-78.5 -14t-79.5 14t-65 39.5t-44 61.5t-16.5 79zM523 1732 q0 -22 8.5 -41t23 -33.5t33.5 -22.5t41 -8t40.5 8t32.5 22t22 33t8 42q0 48 -29.5 78.5t-73.5 30.5t-75 -30.5t-31 -78.5z" />
<glyph unicode="&#xc6;" d="M1195 0h-531l-1 353h-310l-123 -353h-198l560 1456h580v-152h-337l2 -471h302v-151h-302l1 -531h357v-151zM414 527h249l-2 706z" />
<glyph unicode="&#xc7;" d="M1117 438q-13 -101 -52 -185.5t-101.5 -145t-148 -94t-190.5 -33.5q-90 0 -163.5 25.5t-131 70.5t-99 106t-69 133t-41 151t-14.5 160v203q1 81 14.5 160t41 151t69 133.5t99 106.5t130.5 70.5t164 25.5q109 0 195 -33.5t148 -95t99.5 -147.5t49.5 -190h-185 q-9 66 -31 123t-59 100t-90.5 67.5t-126.5 24.5q-66 0 -116.5 -21.5t-87 -58.5t-61 -86t-39.5 -104t-21.5 -112.5t-6.5 -111.5v-205q0 -54 6.5 -111.5t21.5 -113t39 -104.5t61 -86.5t87 -59t117 -21.5q73 0 126.5 23t90.5 64.5t59 98t31 122.5h185zM684 0l-12 -52 q29 -5 56.5 -17t49 -32t34.5 -50.5t13 -73.5q0 -97 -79 -153t-224 -57l-7 107q34 0 64 5.5t52.5 17.5t36 30.5t13.5 45.5q0 25 -10 42t-30.5 27.5t-50.5 16.5t-70 9l31 134h133z" />
<glyph unicode="&#xc8;" d="M975 673h-608v-516h709v-157h-894v1456h885v-158h-700v-468h608v-157zM700 1561h-150l-248 266h223z" />
<glyph unicode="&#xc9;" d="M975 673h-608v-516h709v-157h-894v1456h885v-158h-700v-468h608v-157zM717 1824h224l-268 -266h-140z" />
<glyph unicode="&#xca;" d="M975 673h-608v-516h709v-157h-894v1456h885v-158h-700v-468h608v-157zM923 1624v-25h-154l-150 151l-149 -151h-152v26l245 239h112z" />
<glyph unicode="&#xcb;" d="M975 673h-608v-516h709v-157h-894v1456h885v-158h-700v-468h608v-157zM292 1718q0 45 27.5 75.5t81.5 30.5t82 -30.5t28 -75.5t-28 -75t-82 -30t-81.5 30t-27.5 75zM722 1716q0 45 27.5 76t81.5 31t82 -31t28 -76q0 -44 -28 -74.5t-82 -30.5t-81.5 30.5t-27.5 74.5z" />
<glyph unicode="&#xcc;" d="M174 1456h880v-161h-349v-1135h349v-160h-880v160h341v1135h-341v161zM648 1561h-150l-248 266h223z" />
<glyph unicode="&#xcd;" d="M174 1456h880v-161h-349v-1135h349v-160h-880v160h341v1135h-341v161zM665 1824h224l-268 -266h-140z" />
<glyph unicode="&#xce;" d="M174 1456h880v-161h-349v-1135h349v-160h-880v160h341v1135h-341v161zM871 1624v-25h-154l-150 151l-149 -151h-152v26l245 239h112z" />
<glyph unicode="&#xcf;" d="M174 1456h880v-161h-349v-1135h349v-160h-880v160h341v1135h-341v161zM241 1718q0 45 27.5 75.5t81.5 30.5t82 -30.5t28 -75.5t-28 -75t-82 -30t-81.5 30t-27.5 75zM671 1716q0 45 27.5 76t81.5 31t82 -31t28 -76q0 -44 -28 -74.5t-82 -30.5t-81.5 30.5t-27.5 74.5z" />
<glyph unicode="&#xd0;" horiz-adv-x="1259" d="M185 0v666h-229v151h229v639h337q152 -2 271.5 -51.5t202 -138t126 -212t44.5 -273.5v-107q-1 -150 -44.5 -273.5t-126 -212t-202 -138t-271.5 -50.5h-337zM593 666h-220v-515h149q118 1 204 41.5t142.5 110.5t84 165t28.5 206v109q-1 111 -29 205.5t-84 164t-142 109.5 t-204 42h-149v-487h220v-151z" />
<glyph unicode="&#xd1;" d="M1086 0h-188l-565 1088l-3 -1088h-187v1456h188l565 -1086l3 1086h187v-1456zM934 1844q0 -45 -15.5 -86t-42.5 -71.5t-65 -48.5t-83 -18q-33 0 -59 7t-47.5 17.5t-40.5 23t-38.5 23t-41.5 17.5t-49 7q-44 0 -72.5 -32.5t-29.5 -78.5l-104 24q0 45 15.5 86.5t42.5 73 t64.5 50.5t83.5 19q42 0 75.5 -15t65 -32.5t64 -32.5t71.5 -15q21 0 40 9t32.5 24t22 35.5t8.5 43.5z" />
<glyph unicode="&#xd2;" d="M1121 644q-1 -78 -13.5 -157.5t-38.5 -153.5t-66.5 -138t-96.5 -112t-128.5 -75.5t-162.5 -27.5t-162.5 27.5t-128.5 75.5t-97 112.5t-67.5 138.5t-39.5 153t-14 157v166q1 78 13.5 157.5t39 153.5t67 138.5t96.5 113t128.5 76t162.5 27.5t163 -27.5t129 -75.5 t96.5 -112.5t67 -138.5t39 -154t13.5 -158v-166zM938 812q-1 52 -7 108.5t-20.5 112t-38.5 106t-60 89t-85 61t-114 22.5q-64 0 -113 -23t-85 -61.5t-60 -89t-38.5 -106t-21 -112t-7.5 -107.5v-168q1 -51 7.5 -108t21.5 -112.5t39 -106.5t60 -89.5t85 -61.5t114 -23 t114.5 23t85 61.5t59 89t38 106t20 112.5t6.5 109v168zM714 1582h-150l-248 266h223z" />
<glyph unicode="&#xd3;" d="M1121 644q-1 -78 -13.5 -157.5t-38.5 -153.5t-66.5 -138t-96.5 -112t-128.5 -75.5t-162.5 -27.5t-162.5 27.5t-128.5 75.5t-97 112.5t-67.5 138.5t-39.5 153t-14 157v166q1 78 13.5 157.5t39 153.5t67 138.5t96.5 113t128.5 76t162.5 27.5t163 -27.5t129 -75.5 t96.5 -112.5t67 -138.5t39 -154t13.5 -158v-166zM938 812q-1 52 -7 108.5t-20.5 112t-38.5 106t-60 89t-85 61t-114 22.5q-64 0 -113 -23t-85 -61.5t-60 -89t-38.5 -106t-21 -112t-7.5 -107.5v-168q1 -51 7.5 -108t21.5 -112.5t39 -106.5t60 -89.5t85 -61.5t114 -23 t114.5 23t85 61.5t59 89t38 106t20 112.5t6.5 109v168zM731 1845h224l-268 -266h-140z" />
<glyph unicode="&#xd4;" d="M1121 644q-1 -78 -13.5 -157.5t-38.5 -153.5t-66.5 -138t-96.5 -112t-128.5 -75.5t-162.5 -27.5t-162.5 27.5t-128.5 75.5t-97 112.5t-67.5 138.5t-39.5 153t-14 157v166q1 78 13.5 157.5t39 153.5t67 138.5t96.5 113t128.5 76t162.5 27.5t163 -27.5t129 -75.5 t96.5 -112.5t67 -138.5t39 -154t13.5 -158v-166zM938 812q-1 52 -7 108.5t-20.5 112t-38.5 106t-60 89t-85 61t-114 22.5q-64 0 -113 -23t-85 -61.5t-60 -89t-38.5 -106t-21 -112t-7.5 -107.5v-168q1 -51 7.5 -108t21.5 -112.5t39 -106.5t60 -89.5t85 -61.5t114 -23 t114.5 23t85 61.5t59 89t38 106t20 112.5t6.5 109v168zM937 1645v-25h-154l-150 151l-149 -151h-152v26l245 239h112z" />
<glyph unicode="&#xd5;" d="M1121 644q-1 -78 -13.5 -157.5t-38.5 -153.5t-66.5 -138t-96.5 -112t-128.5 -75.5t-162.5 -27.5t-162.5 27.5t-128.5 75.5t-97 112.5t-67.5 138.5t-39.5 153t-14 157v166q1 78 13.5 157.5t39 153.5t67 138.5t96.5 113t128.5 76t162.5 27.5t163 -27.5t129 -75.5 t96.5 -112.5t67 -138.5t39 -154t13.5 -158v-166zM938 812q-1 52 -7 108.5t-20.5 112t-38.5 106t-60 89t-85 61t-114 22.5q-64 0 -113 -23t-85 -61.5t-60 -89t-38.5 -106t-21 -112t-7.5 -107.5v-168q1 -51 7.5 -108t21.5 -112.5t39 -106.5t60 -89.5t85 -61.5t114 -23 t114.5 23t85 61.5t59 89t38 106t20 112.5t6.5 109v168zM977 1865q0 -45 -15.5 -86t-42.5 -71.5t-65 -48.5t-83 -18q-33 0 -59 7t-47.5 17.5t-40.5 23t-38.5 23t-41.5 17.5t-49 7q-44 0 -72.5 -32.5t-29.5 -78.5l-104 24q0 45 15.5 86.5t42.5 73t64.5 50.5t83.5 19 q42 0 75.5 -15t65 -32.5t64 -32.5t71.5 -15q21 0 40 9t32.5 24t22 35.5t8.5 43.5z" />
<glyph unicode="&#xd6;" d="M1121 644q-1 -78 -13.5 -157.5t-38.5 -153.5t-66.5 -138t-96.5 -112t-128.5 -75.5t-162.5 -27.5t-162.5 27.5t-128.5 75.5t-97 112.5t-67.5 138.5t-39.5 153t-14 157v166q1 78 13.5 157.5t39 153.5t67 138.5t96.5 113t128.5 76t162.5 27.5t163 -27.5t129 -75.5 t96.5 -112.5t67 -138.5t39 -154t13.5 -158v-166zM938 812q-1 52 -7 108.5t-20.5 112t-38.5 106t-60 89t-85 61t-114 22.5q-64 0 -113 -23t-85 -61.5t-60 -89t-38.5 -106t-21 -112t-7.5 -107.5v-168q1 -51 7.5 -108t21.5 -112.5t39 -106.5t60 -89.5t85 -61.5t114 -23 t114.5 23t85 61.5t59 89t38 106t20 112.5t6.5 109v168zM306 1739q0 45 27.5 75.5t81.5 30.5t82 -30.5t28 -75.5t-28 -75t-82 -30t-81.5 30t-27.5 75zM736 1737q0 45 27.5 76t81.5 31t82 -31t28 -76q0 -44 -28 -74.5t-82 -30.5t-81.5 30.5t-27.5 74.5z" />
<glyph unicode="&#xd7;" d="M181 329l330 337l-327 334l119 123l328 -335l329 335l119 -123l-328 -334l331 -337l-119 -123l-332 337l-331 -337z" />
<glyph unicode="&#xd8;" d="M1113 644q-1 -78 -13.5 -157.5t-38.5 -153.5t-66.5 -138t-96.5 -112t-128.5 -75.5t-162.5 -27.5q-91 0 -162 27.5t-128 75.5l-104 -176h-142l160 270q-34 49 -59 105t-41.5 116t-24.5 122.5t-8 123.5v166q1 78 13.5 157.5t39 153.5t67 138.5t96.5 113t128.5 76 t162.5 27.5q102 0 180.5 -34.5t137.5 -93.5l99 168h142l-161 -272q28 -47 48.5 -99.5t34 -108t20 -113t7.5 -113.5v-166zM280 644q1 -69 12.5 -146.5t40.5 -147.5l498 843q-37 53 -92.5 85.5t-133.5 32.5q-64 0 -113 -23t-85 -61.5t-60 -89t-38.5 -106t-21 -112t-7.5 -107.5 v-168zM930 812q-1 58 -8.5 122.5t-26.5 126.5l-491 -830q37 -41 87 -64.5t116 -23.5q65 0 114.5 23t85 61.5t59 89t38 106t20 112.5t6.5 109v168z" />
<glyph unicode="&#xd9;" d="M1088 1456l2 -986q-2 -102 -37 -191t-98 -155.5t-150 -105t-191 -38.5q-106 0 -193 38t-149 104.5t-97 156t-36 191.5l2 986h176l4 -986q1 -65 20.5 -125t56 -106t91 -74t125.5 -28t125 27.5t90.5 74t55.5 106.5t21 125l3 986h179zM740 1549h-150l-248 266h223z" />
<glyph unicode="&#xda;" d="M1088 1456l2 -986q-2 -102 -37 -191t-98 -155.5t-150 -105t-191 -38.5q-106 0 -193 38t-149 104.5t-97 156t-36 191.5l2 986h176l4 -986q1 -65 20.5 -125t56 -106t91 -74t125.5 -28t125 27.5t90.5 74t55.5 106.5t21 125l3 986h179zM757 1812h224l-268 -266h-140z" />
<glyph unicode="&#xdb;" d="M1088 1456l2 -986q-2 -102 -37 -191t-98 -155.5t-150 -105t-191 -38.5q-106 0 -193 38t-149 104.5t-97 156t-36 191.5l2 986h176l4 -986q1 -65 20.5 -125t56 -106t91 -74t125.5 -28t125 27.5t90.5 74t55.5 106.5t21 125l3 986h179zM963 1612v-25h-154l-150 151l-149 -151 h-152v26l245 239h112z" />
<glyph unicode="&#xdc;" d="M1088 1456l2 -986q-2 -102 -37 -191t-98 -155.5t-150 -105t-191 -38.5q-106 0 -193 38t-149 104.5t-97 156t-36 191.5l2 986h176l4 -986q1 -65 20.5 -125t56 -106t91 -74t125.5 -28t125 27.5t90.5 74t55.5 106.5t21 125l3 986h179zM332 1706q0 45 27.5 75.5t81.5 30.5 t82 -30.5t28 -75.5t-28 -75t-82 -30t-81.5 30t-27.5 75zM762 1704q0 45 27.5 76t81.5 31t82 -31t28 -76q0 -44 -28 -74.5t-82 -30.5t-81.5 30.5t-27.5 74.5z" />
<glyph unicode="&#xdd;" d="M603 725l332 731h210l-453 -913l-3 -543h-172l-3 543l-453 913h211zM707 1823h224l-268 -266h-140z" />
<glyph unicode="&#xde;" d="M353 1456v-293h277q117 0 207.5 -31.5t153 -88t95 -134.5t32.5 -171t-32.5 -171t-95 -134.5t-153 -88t-207.5 -31.5h-277v-313h-185v1456h185zM353 1011v-546h277q78 0 135 22.5t94.5 60t55.5 86.5t18 102q0 54 -18 103.5t-55 88t-94.5 61t-135.5 22.5h-277z" />
<glyph unicode="&#xdf;" d="M353 0h-184v1087q0 112 29.5 200t82 148t124.5 91.5t157 31.5q75 0 140 -20.5t114 -62.5t77 -105.5t28 -149.5q0 -79 -20 -132.5t-44 -95.5t-43.5 -80.5t-19.5 -88.5q0 -46 22.5 -83t56.5 -72t74 -70t74 -76t56.5 -91t22.5 -115q0 -85 -25.5 -148t-71.5 -105t-109.5 -63 t-139.5 -21q-41 0 -85 5.5t-84.5 15t-74.5 22.5t-54 29l42 155q18 -11 44.5 -24.5t58 -25t66 -19t68.5 -7.5q47 0 81 13.5t56 37.5t32.5 56t10.5 70q0 47 -22.5 85.5t-56.5 73t-74 70t-74 77t-57 93t-23 119.5q0 39 10 72t25.5 62.5t33.5 57t33.5 57t25.5 61t10 69.5 q0 50 -15 87.5t-39.5 63t-56 38.5t-63.5 13q-99 0 -158.5 -82t-60.5 -237v-1087z" />
<glyph unicode="&#xe0;" d="M885 0q-11 21 -17.5 52.5t-9.5 65.5q-28 -28 -62.5 -53t-76 -44t-88.5 -30t-100 -11q-86 0 -155.5 25t-118 67.5t-75 101t-26.5 126.5q0 89 35.5 156t100.5 111.5t156.5 66.5t204.5 22h202v85q0 49 -18 88t-51 66.5t-80.5 42.5t-106.5 15q-55 0 -98.5 -14t-73.5 -37 t-46.5 -54.5t-16.5 -65.5h-186q1 59 30.5 116t85 102.5t135 73.5t180.5 28q92 0 171 -22.5t136.5 -68t90.5 -113.5t33 -159v-503q0 -54 10 -114.5t28 -105.5v-16h-193zM558 141q54 0 101 14t85.5 37t66.5 52.5t44 61.5v219h-172q-162 0 -252 -48t-90 -151q0 -40 13.5 -74 t40.5 -58.5t68 -38.5t95 -14zM706 1239h-150l-248 266h223z" />
<glyph unicode="&#xe1;" d="M885 0q-11 21 -17.5 52.5t-9.5 65.5q-28 -28 -62.5 -53t-76 -44t-88.5 -30t-100 -11q-86 0 -155.5 25t-118 67.5t-75 101t-26.5 126.5q0 89 35.5 156t100.5 111.5t156.5 66.5t204.5 22h202v85q0 49 -18 88t-51 66.5t-80.5 42.5t-106.5 15q-55 0 -98.5 -14t-73.5 -37 t-46.5 -54.5t-16.5 -65.5h-186q1 59 30.5 116t85 102.5t135 73.5t180.5 28q92 0 171 -22.5t136.5 -68t90.5 -113.5t33 -159v-503q0 -54 10 -114.5t28 -105.5v-16h-193zM558 141q54 0 101 14t85.5 37t66.5 52.5t44 61.5v219h-172q-162 0 -252 -48t-90 -151q0 -40 13.5 -74 t40.5 -58.5t68 -38.5t95 -14zM723 1502h224l-268 -266h-140z" />
<glyph unicode="&#xe2;" d="M885 0q-11 21 -17.5 52.5t-9.5 65.5q-28 -28 -62.5 -53t-76 -44t-88.5 -30t-100 -11q-86 0 -155.5 25t-118 67.5t-75 101t-26.5 126.5q0 89 35.5 156t100.5 111.5t156.5 66.5t204.5 22h202v85q0 49 -18 88t-51 66.5t-80.5 42.5t-106.5 15q-55 0 -98.5 -14t-73.5 -37 t-46.5 -54.5t-16.5 -65.5h-186q1 59 30.5 116t85 102.5t135 73.5t180.5 28q92 0 171 -22.5t136.5 -68t90.5 -113.5t33 -159v-503q0 -54 10 -114.5t28 -105.5v-16h-193zM558 141q54 0 101 14t85.5 37t66.5 52.5t44 61.5v219h-172q-162 0 -252 -48t-90 -151q0 -40 13.5 -74 t40.5 -58.5t68 -38.5t95 -14zM929 1302v-25h-154l-150 151l-149 -151h-152v26l245 239h112z" />
<glyph unicode="&#xe3;" d="M885 0q-11 21 -17.5 52.5t-9.5 65.5q-28 -28 -62.5 -53t-76 -44t-88.5 -30t-100 -11q-86 0 -155.5 25t-118 67.5t-75 101t-26.5 126.5q0 89 35.5 156t100.5 111.5t156.5 66.5t204.5 22h202v85q0 49 -18 88t-51 66.5t-80.5 42.5t-106.5 15q-55 0 -98.5 -14t-73.5 -37 t-46.5 -54.5t-16.5 -65.5h-186q1 59 30.5 116t85 102.5t135 73.5t180.5 28q92 0 171 -22.5t136.5 -68t90.5 -113.5t33 -159v-503q0 -54 10 -114.5t28 -105.5v-16h-193zM558 141q54 0 101 14t85.5 37t66.5 52.5t44 61.5v219h-172q-162 0 -252 -48t-90 -151q0 -40 13.5 -74 t40.5 -58.5t68 -38.5t95 -14zM969 1522q0 -45 -15.5 -86t-42.5 -71.5t-65 -48.5t-83 -18q-33 0 -59 7t-47.5 17.5t-40.5 23t-38.5 23t-41.5 17.5t-49 7q-44 0 -72.5 -32.5t-29.5 -78.5l-104 24q0 45 15.5 86.5t42.5 73t64.5 50.5t83.5 19q42 0 75.5 -15t65 -32.5t64 -32.5 t71.5 -15q21 0 40 9t32.5 24t22 35.5t8.5 43.5z" />
<glyph unicode="&#xe4;" d="M885 0q-11 21 -17.5 52.5t-9.5 65.5q-28 -28 -62.5 -53t-76 -44t-88.5 -30t-100 -11q-86 0 -155.5 25t-118 67.5t-75 101t-26.5 126.5q0 89 35.5 156t100.5 111.5t156.5 66.5t204.5 22h202v85q0 49 -18 88t-51 66.5t-80.5 42.5t-106.5 15q-55 0 -98.5 -14t-73.5 -37 t-46.5 -54.5t-16.5 -65.5h-186q1 59 30.5 116t85 102.5t135 73.5t180.5 28q92 0 171 -22.5t136.5 -68t90.5 -113.5t33 -159v-503q0 -54 10 -114.5t28 -105.5v-16h-193zM558 141q54 0 101 14t85.5 37t66.5 52.5t44 61.5v219h-172q-162 0 -252 -48t-90 -151q0 -40 13.5 -74 t40.5 -58.5t68 -38.5t95 -14zM298 1396q0 45 27.5 75.5t81.5 30.5t82 -30.5t28 -75.5t-28 -75t-82 -30t-81.5 30t-27.5 75zM728 1394q0 45 27.5 76t81.5 31t82 -31t28 -76q0 -44 -28 -74.5t-82 -30.5t-81.5 30.5t-27.5 74.5z" />
<glyph unicode="&#xe5;" d="M885 0q-11 21 -17.5 52.5t-9.5 65.5q-28 -28 -62.5 -53t-76 -44t-88.5 -30t-100 -11q-86 0 -155.5 25t-118 67.5t-75 101t-26.5 126.5q0 89 35.5 156t100.5 111.5t156.5 66.5t204.5 22h202v85q0 49 -18 88t-51 66.5t-80.5 42.5t-106.5 15q-55 0 -98.5 -14t-73.5 -37 t-46.5 -54.5t-16.5 -65.5h-186q1 59 30.5 116t85 102.5t135 73.5t180.5 28q92 0 171 -22.5t136.5 -68t90.5 -113.5t33 -159v-503q0 -54 10 -114.5t28 -105.5v-16h-193zM558 141q54 0 101 14t85.5 37t66.5 52.5t44 61.5v219h-172q-162 0 -252 -48t-90 -151q0 -40 13.5 -74 t40.5 -58.5t68 -38.5t95 -14zM420 1410q0 43 16.5 79.5t44 63t65 41.5t79.5 15t78.5 -15t64 -41.5t43.5 -63t16 -79.5t-16 -79t-43.5 -61.5t-64 -39.5t-78.5 -14t-79.5 14t-65 39.5t-44 61.5t-16.5 79zM519 1410q0 -22 8.5 -41t23 -33.5t33.5 -22.5t41 -8t40.5 8t32.5 22 t22 33t8 42q0 48 -29.5 78.5t-73.5 30.5t-75 -30.5t-31 -78.5z" />
<glyph unicode="&#xe6;" d="M896 -20q-103 0 -177 37.5t-120 108.5q-19 -29 -44.5 -55.5t-58.5 -46.5t-73 -32t-88 -12q-71 0 -125 22t-91 61.5t-56.5 96t-19.5 125.5q0 166 104 258t301 92h63v148q0 76 -31 121.5t-99 45.5q-63 0 -102 -41.5t-39 -116.5l-179 8q0 69 22.5 124.5t64 95t100.5 61 t131 21.5q83 0 145.5 -27t101.5 -80q43 51 102.5 79t133.5 28q81 0 142.5 -26.5t103.5 -75t63.5 -117t21.5 -152.5v-234h-505v-86q0 -66 13.5 -118t43 -88t75.5 -55.5t112 -19.5q38 0 67.5 7t53 17.5t42.5 22.5t35 23l46 -136q-13 -10 -36 -24.5t-57.5 -27.5t-81 -22.5 t-105.5 -9.5zM862 950q-45 0 -77.5 -19.5t-53.5 -52.5t-31.5 -77t-11.5 -92v-69h329v128q0 35 -10 67.5t-30 58t-49 41t-66 15.5zM371 130q37 0 75 21.5t66 50.5l-1 293h-61q-53 0 -95 -17.5t-71 -47t-44.5 -68t-15.5 -81.5q0 -31 9.5 -58.5t28 -48t46 -32.5t63.5 -12z" />
<glyph unicode="&#xe7;" d="M635 130q50 0 97.5 16t84.5 44.5t59.5 67t23.5 83.5h175q-1 -72 -37.5 -137.5t-97.5 -115t-140 -79t-165 -29.5q-123 0 -215 44t-153.5 118.5t-92.5 172t-31 205.5v42q0 107 31 205t92.5 172.5t153.5 118.5t215 44q96 0 176.5 -30.5t139 -83t91.5 -124.5t33 -154h-175 q-1 49 -21.5 92.5t-55.5 76.5t-83.5 52t-104.5 19q-86 0 -144.5 -34.5t-94.5 -90t-51.5 -124.5t-15.5 -139v-42q0 -71 15.5 -140.5t51 -125t94 -90t145.5 -34.5zM705 0l-12 -52q29 -5 56.5 -17t49 -32t34.5 -50.5t13 -73.5q0 -97 -79 -153t-224 -57l-7 107q34 0 64 5.5 t52.5 17.5t36 30.5t13.5 45.5q0 25 -10 42t-30.5 27.5t-50.5 16.5t-70 9l31 134h133z" />
<glyph unicode="&#xe8;" d="M652 -20q-114 0 -209.5 39t-163.5 109t-106 166t-38 209v42q0 131 42 234.5t111.5 175t158 109.5t181.5 38q117 0 204.5 -40.5t145.5 -112t86.5 -168.5t28.5 -210v-83h-773q3 -74 28.5 -139t70 -113.5t106.5 -76.5t137 -28q99 0 176 40t128 106l113 -88 q-27 -41 -67.5 -78.5t-93.5 -66.5t-120 -46.5t-146 -17.5zM628 950q-56 0 -106 -20.5t-90 -60t-67.5 -97t-38.5 -132.5h582v14q-3 54 -20.5 107t-51.5 95t-85.5 68t-122.5 26zM701 1240h-150l-248 266h223z" />
<glyph unicode="&#xe9;" d="M652 -20q-114 0 -209.5 39t-163.5 109t-106 166t-38 209v42q0 131 42 234.5t111.5 175t158 109.5t181.5 38q117 0 204.5 -40.5t145.5 -112t86.5 -168.5t28.5 -210v-83h-773q3 -74 28.5 -139t70 -113.5t106.5 -76.5t137 -28q99 0 176 40t128 106l113 -88 q-27 -41 -67.5 -78.5t-93.5 -66.5t-120 -46.5t-146 -17.5zM628 950q-56 0 -106 -20.5t-90 -60t-67.5 -97t-38.5 -132.5h582v14q-3 54 -20.5 107t-51.5 95t-85.5 68t-122.5 26zM718 1503h224l-268 -266h-140z" />
<glyph unicode="&#xea;" d="M652 -20q-114 0 -209.5 39t-163.5 109t-106 166t-38 209v42q0 131 42 234.5t111.5 175t158 109.5t181.5 38q117 0 204.5 -40.5t145.5 -112t86.5 -168.5t28.5 -210v-83h-773q3 -74 28.5 -139t70 -113.5t106.5 -76.5t137 -28q99 0 176 40t128 106l113 -88 q-27 -41 -67.5 -78.5t-93.5 -66.5t-120 -46.5t-146 -17.5zM628 950q-56 0 -106 -20.5t-90 -60t-67.5 -97t-38.5 -132.5h582v14q-3 54 -20.5 107t-51.5 95t-85.5 68t-122.5 26zM924 1303v-25h-154l-150 151l-149 -151h-152v26l245 239h112z" />
<glyph unicode="&#xeb;" d="M652 -20q-114 0 -209.5 39t-163.5 109t-106 166t-38 209v42q0 131 42 234.5t111.5 175t158 109.5t181.5 38q117 0 204.5 -40.5t145.5 -112t86.5 -168.5t28.5 -210v-83h-773q3 -74 28.5 -139t70 -113.5t106.5 -76.5t137 -28q99 0 176 40t128 106l113 -88 q-27 -41 -67.5 -78.5t-93.5 -66.5t-120 -46.5t-146 -17.5zM628 950q-56 0 -106 -20.5t-90 -60t-67.5 -97t-38.5 -132.5h582v14q-3 54 -20.5 107t-51.5 95t-85.5 68t-122.5 26zM293 1397q0 45 27.5 75.5t81.5 30.5t82 -30.5t28 -75.5t-28 -75t-82 -30t-81.5 30t-27.5 75z M723 1395q0 45 27.5 76t81.5 31t82 -31t28 -76q0 -44 -28 -74.5t-82 -30.5t-81.5 30.5t-27.5 74.5z" />
<glyph unicode="&#xec;" d="M203 1082h553v-922h353v-160h-906v160h368v761h-368v161zM747 1218h-150l-248 266h223z" />
<glyph unicode="&#xed;" d="M203 1082h553v-922h353v-160h-906v160h368v761h-368v161zM764 1481h224l-268 -266h-140z" />
<glyph unicode="&#xee;" d="M203 1082h553v-922h353v-160h-906v160h368v761h-368v161zM970 1281v-25h-154l-150 151l-149 -151h-152v26l245 239h112z" />
<glyph unicode="&#xef;" d="M203 1082h553v-922h353v-160h-906v160h368v761h-368v161zM339 1375q0 45 27.5 75.5t81.5 30.5t82 -30.5t28 -75.5t-28 -75t-82 -30t-81.5 30t-27.5 75zM769 1373q0 45 27.5 76t81.5 31t82 -31t28 -76q0 -44 -28 -74.5t-82 -30.5t-81.5 30.5t-27.5 74.5z" />
<glyph unicode="&#xf0;" d="M845 1286q104 -118 162.5 -282.5t58.5 -370.5v-62q0 -138 -37.5 -247.5t-104.5 -186t-158.5 -117t-200.5 -40.5q-108 0 -198.5 37.5t-156 103.5t-101.5 155t-36 191q0 115 36.5 209t102 161t155 103.5t194.5 36.5q88 0 164.5 -34t133.5 -90q-23 110 -68 194t-107 147 l-266 -152l-73 99l239 137q-41 27 -84.5 47.5t-89.5 36.5l57 159q80 -22 151.5 -58.5t134.5 -87.5l230 132l73 -100zM881 635q0 13 -0.5 25t-0.5 25q-17 27 -45.5 52.5t-68.5 45t-91.5 31t-113.5 11.5q-69 0 -125 -28.5t-95.5 -77.5t-60.5 -114t-21 -138q0 -62 21 -122.5 t60.5 -108t97 -77t131.5 -29.5q72 0 129.5 32t98 89.5t62.5 139t22 180.5v64z" />
<glyph unicode="&#xf1;" d="M340 1082l13 -160q59 84 145 131.5t192 48.5q85 0 154.5 -24t118.5 -75t75.5 -129.5t26.5 -186.5v-687h-185v683q0 72 -16 122t-47.5 81t-77 45t-104.5 14q-93 0 -163.5 -46.5t-112.5 -122.5v-776h-185v1082h166zM949 1522q0 -45 -15.5 -86t-42.5 -71.5t-65 -48.5 t-83 -18q-33 0 -59 7t-47.5 17.5t-40.5 23t-38.5 23t-41.5 17.5t-49 7q-44 0 -72.5 -32.5t-29.5 -78.5l-104 24q0 45 15.5 86.5t42.5 73t64.5 50.5t83.5 19q42 0 75.5 -15t65 -32.5t64 -32.5t71.5 -15q21 0 40 9t32.5 24t22 35.5t8.5 43.5z" />
<glyph unicode="&#xf2;" d="M122 551q0 117 34 217.5t97.5 174.5t154.5 116.5t205 42.5q115 0 206.5 -42.5t155 -116.5t97.5 -174.5t34 -217.5v-22q0 -117 -34 -217t-97.5 -174t-154.5 -116t-205 -42q-115 0 -206.5 42t-155 116t-97.5 174t-34 217v22zM307 529q0 -80 19 -152.5t57.5 -127.5t96.5 -87 t135 -32q76 0 133.5 32t96 87t57.5 127.5t19 152.5v22q0 79 -19.5 151.5t-58 127.5t-96 87.5t-134.5 32.5t-134 -32.5t-95.5 -87.5t-57.5 -127.5t-19 -151.5v-22zM695 1239h-150l-248 266h223z" />
<glyph unicode="&#xf3;" d="M122 551q0 117 34 217.5t97.5 174.5t154.5 116.5t205 42.5q115 0 206.5 -42.5t155 -116.5t97.5 -174.5t34 -217.5v-22q0 -117 -34 -217t-97.5 -174t-154.5 -116t-205 -42q-115 0 -206.5 42t-155 116t-97.5 174t-34 217v22zM307 529q0 -80 19 -152.5t57.5 -127.5t96.5 -87 t135 -32q76 0 133.5 32t96 87t57.5 127.5t19 152.5v22q0 79 -19.5 151.5t-58 127.5t-96 87.5t-134.5 32.5t-134 -32.5t-95.5 -87.5t-57.5 -127.5t-19 -151.5v-22zM712 1502h224l-268 -266h-140z" />
<glyph unicode="&#xf4;" d="M122 551q0 117 34 217.5t97.5 174.5t154.5 116.5t205 42.5q115 0 206.5 -42.5t155 -116.5t97.5 -174.5t34 -217.5v-22q0 -117 -34 -217t-97.5 -174t-154.5 -116t-205 -42q-115 0 -206.5 42t-155 116t-97.5 174t-34 217v22zM307 529q0 -80 19 -152.5t57.5 -127.5t96.5 -87 t135 -32q76 0 133.5 32t96 87t57.5 127.5t19 152.5v22q0 79 -19.5 151.5t-58 127.5t-96 87.5t-134.5 32.5t-134 -32.5t-95.5 -87.5t-57.5 -127.5t-19 -151.5v-22zM918 1302v-25h-154l-150 151l-149 -151h-152v26l245 239h112z" />
<glyph unicode="&#xf5;" d="M122 551q0 117 34 217.5t97.5 174.5t154.5 116.5t205 42.5q115 0 206.5 -42.5t155 -116.5t97.5 -174.5t34 -217.5v-22q0 -117 -34 -217t-97.5 -174t-154.5 -116t-205 -42q-115 0 -206.5 42t-155 116t-97.5 174t-34 217v22zM307 529q0 -80 19 -152.5t57.5 -127.5t96.5 -87 t135 -32q76 0 133.5 32t96 87t57.5 127.5t19 152.5v22q0 79 -19.5 151.5t-58 127.5t-96 87.5t-134.5 32.5t-134 -32.5t-95.5 -87.5t-57.5 -127.5t-19 -151.5v-22zM958 1522q0 -45 -15.5 -86t-42.5 -71.5t-65 -48.5t-83 -18q-33 0 -59 7t-47.5 17.5t-40.5 23t-38.5 23 t-41.5 17.5t-49 7q-44 0 -72.5 -32.5t-29.5 -78.5l-104 24q0 45 15.5 86.5t42.5 73t64.5 50.5t83.5 19q42 0 75.5 -15t65 -32.5t64 -32.5t71.5 -15q21 0 40 9t32.5 24t22 35.5t8.5 43.5z" />
<glyph unicode="&#xf6;" d="M122 551q0 117 34 217.5t97.5 174.5t154.5 116.5t205 42.5q115 0 206.5 -42.5t155 -116.5t97.5 -174.5t34 -217.5v-22q0 -117 -34 -217t-97.5 -174t-154.5 -116t-205 -42q-115 0 -206.5 42t-155 116t-97.5 174t-34 217v22zM307 529q0 -80 19 -152.5t57.5 -127.5t96.5 -87 t135 -32q76 0 133.5 32t96 87t57.5 127.5t19 152.5v22q0 79 -19.5 151.5t-58 127.5t-96 87.5t-134.5 32.5t-134 -32.5t-95.5 -87.5t-57.5 -127.5t-19 -151.5v-22zM287 1396q0 45 27.5 75.5t81.5 30.5t82 -30.5t28 -75.5t-28 -75t-82 -30t-81.5 30t-27.5 75zM717 1394 q0 45 27.5 76t81.5 31t82 -31t28 -76q0 -44 -28 -74.5t-82 -30.5t-81.5 30.5t-27.5 74.5z" />
<glyph unicode="&#xf7;" d="M1113 600h-998v184h998v-184zM507 1097q0 45 27.5 76t81.5 31t82 -31t28 -76t-28 -75t-82 -30t-81.5 30t-27.5 75zM505 282q0 45 27.5 76t81.5 31t82 -31t28 -76q0 -44 -28 -74.5t-82 -30.5t-81.5 30.5t-27.5 74.5z" />
<glyph unicode="&#xf8;" d="M122 551q0 117 34 217.5t97.5 174.5t154.5 116.5t205 42.5q57 0 107.5 -10.5t95.5 -30.5l73 148h123l-101 -205q94 -75 144.5 -192t50.5 -261v-22q0 -117 -34 -217t-97.5 -174t-154.5 -116t-205 -42q-54 0 -101.5 9.5t-90.5 26.5l-74 -151h-123l101 205q-99 73 -152 192 t-53 267v22zM307 529q0 -91 24 -169.5t72 -135.5l342 694q-29 15 -61.5 23.5t-70.5 8.5q-77 0 -134 -32.5t-95.5 -87.5t-57.5 -127.5t-19 -151.5v-22zM921 551q0 85 -22 161t-67 133l-340 -689q55 -26 123 -26q76 0 133.5 32t96 87t57.5 127.5t19 152.5v22z" />
<glyph unicode="&#xf9;" d="M876 149q-54 -80 -135 -124.5t-187 -44.5q-85 0 -154 26.5t-118 82.5t-75.5 142.5t-26.5 207.5v643h185v-645q0 -88 14 -146t42 -92.5t68.5 -48.5t93.5 -14q113 0 182.5 46t103.5 124v776h186v-1082h-168zM694 1219h-150l-248 266h223z" />
<glyph unicode="&#xfa;" d="M876 149q-54 -80 -135 -124.5t-187 -44.5q-85 0 -154 26.5t-118 82.5t-75.5 142.5t-26.5 207.5v643h185v-645q0 -88 14 -146t42 -92.5t68.5 -48.5t93.5 -14q113 0 182.5 46t103.5 124v776h186v-1082h-168zM711 1482h224l-268 -266h-140z" />
<glyph unicode="&#xfb;" d="M876 149q-54 -80 -135 -124.5t-187 -44.5q-85 0 -154 26.5t-118 82.5t-75.5 142.5t-26.5 207.5v643h185v-645q0 -88 14 -146t42 -92.5t68.5 -48.5t93.5 -14q113 0 182.5 46t103.5 124v776h186v-1082h-168zM917 1282v-25h-154l-150 151l-149 -151h-152v26l245 239h112z " />
<glyph unicode="&#xfc;" d="M876 149q-54 -80 -135 -124.5t-187 -44.5q-85 0 -154 26.5t-118 82.5t-75.5 142.5t-26.5 207.5v643h185v-645q0 -88 14 -146t42 -92.5t68.5 -48.5t93.5 -14q113 0 182.5 46t103.5 124v776h186v-1082h-168zM287 1376q0 45 27.5 75.5t81.5 30.5t82 -30.5t28 -75.5t-28 -75 t-82 -30t-81.5 30t-27.5 75zM717 1374q0 45 27.5 76t81.5 31t82 -31t28 -76q0 -44 -28 -74.5t-82 -30.5t-81.5 30.5t-27.5 74.5z" />
<glyph unicode="&#xfd;" d="M572 384l48 -131l330 829h207l-549 -1249q-19 -42 -48.5 -89t-71.5 -87t-98 -67t-129 -27q-13 0 -29 1.5t-32 4t-30 5.5t-23 5l30 151q7 0 19 -1t25 -2t25 -1.5t19 -0.5q38 0 69.5 21t56 50t42 60t27.5 51l74 144l-466 1031h207zM731 1482h224l-268 -266h-140z" />
<glyph unicode="&#xfe;" d="M1087 529q0 -116 -27 -216.5t-80.5 -174.5t-131.5 -116t-180 -42q-100 0 -177 32.5t-133 94.5v-523h-185v1974h185v-588q55 64 131 98t176 34q104 0 183 -41t132 -114t80 -174.5t27 -222.5v-21zM902 550q0 79 -17 150.5t-52.5 126t-90.5 86.5t-132 32q-91 0 -153 -41.5 t-99 -107.5v-518q38 -65 99 -106t155 -41q76 0 131 32.5t90 87.5t52 127t17 151v21z" />
<glyph unicode="&#xff;" d="M572 384l48 -131l330 829h207l-549 -1249q-19 -42 -48.5 -89t-71.5 -87t-98 -67t-129 -27q-13 0 -29 1.5t-32 4t-30 5.5t-23 5l30 151q7 0 19 -1t25 -2t25 -1.5t19 -0.5q38 0 69.5 21t56 50t42 60t27.5 51l74 144l-466 1031h207zM306 1376q0 45 27.5 75.5t81.5 30.5 t82 -30.5t28 -75.5t-28 -75t-82 -30t-81.5 30t-27.5 75zM736 1374q0 45 27.5 76t81.5 31t82 -31t28 -76q0 -44 -28 -74.5t-82 -30.5t-81.5 30.5t-27.5 74.5z" />
<glyph unicode="&#x100;" d="M869 377h-486l-117 -377h-185l470 1456h155l462 -1456h-184zM433 538h387l-192 632zM990 1643h-714v143h714v-143z" />
<glyph unicode="&#x101;" d="M885 0q-11 21 -17.5 52.5t-9.5 65.5q-28 -28 -62.5 -53t-76 -44t-88.5 -30t-100 -11q-86 0 -155.5 25t-118 67.5t-75 101t-26.5 126.5q0 89 35.5 156t100.5 111.5t156.5 66.5t204.5 22h202v85q0 49 -18 88t-51 66.5t-80.5 42.5t-106.5 15q-55 0 -98.5 -14t-73.5 -37 t-46.5 -54.5t-16.5 -65.5h-186q1 59 30.5 116t85 102.5t135 73.5t180.5 28q92 0 171 -22.5t136.5 -68t90.5 -113.5t33 -159v-503q0 -54 10 -114.5t28 -105.5v-16h-193zM558 141q54 0 101 14t85.5 37t66.5 52.5t44 61.5v219h-172q-162 0 -252 -48t-90 -151q0 -40 13.5 -74 t40.5 -58.5t68 -38.5t95 -14zM986 1321h-714v143h714v-143z" />
<glyph unicode="&#x102;" d="M869 377h-486l-117 -377h-185l470 1456h155l462 -1456h-184zM433 538h387l-192 632zM928 1866q0 -59 -21 -108.5t-60 -84.5t-94 -54.5t-123 -19.5q-69 0 -124 19.5t-94 54.5t-60.5 84.5t-21.5 108.5h150q0 -30 9 -57.5t27 -47.5t46 -32t68 -12q39 0 66.5 12t45.5 32 t27 47.5t9 57.5h150z" />
<glyph unicode="&#x103;" d="M885 0q-11 21 -17.5 52.5t-9.5 65.5q-28 -28 -62.5 -53t-76 -44t-88.5 -30t-100 -11q-86 0 -155.5 25t-118 67.5t-75 101t-26.5 126.5q0 89 35.5 156t100.5 111.5t156.5 66.5t204.5 22h202v85q0 49 -18 88t-51 66.5t-80.5 42.5t-106.5 15q-55 0 -98.5 -14t-73.5 -37 t-46.5 -54.5t-16.5 -65.5h-186q1 59 30.5 116t85 102.5t135 73.5t180.5 28q92 0 171 -22.5t136.5 -68t90.5 -113.5t33 -159v-503q0 -54 10 -114.5t28 -105.5v-16h-193zM558 141q54 0 101 14t85.5 37t66.5 52.5t44 61.5v219h-172q-162 0 -252 -48t-90 -151q0 -40 13.5 -74 t40.5 -58.5t68 -38.5t95 -14zM924 1544q0 -59 -21 -108.5t-60 -84.5t-94 -54.5t-123 -19.5q-69 0 -124 19.5t-94 54.5t-60.5 84.5t-21.5 108.5h150q0 -30 9 -57.5t27 -47.5t46 -32t68 -12q39 0 66.5 12t45.5 32t27 47.5t9 57.5h150z" />
<glyph unicode="&#x104;" d="M551 1456h155l462 -1456h-48q-78 -42 -125 -97.5t-47 -121.5q0 -34 18 -54.5t60 -20.5q32 -1 58.5 8.5t42.5 17.5l31 -121q-28 -16 -70.5 -30t-107.5 -14q-41 0 -76 12t-61 36t-41 59.5t-15 82.5q0 36 13 72t37.5 70.5t59.5 66.5t79 59l-107 352h-486l-117 -377h-185z M433 538h387l-192 632z" />
<glyph unicode="&#x105;" d="M879 14q-8 21 -13 48t-8 56q-28 -28 -62.5 -53t-76 -44t-88.5 -30t-100 -11q-86 0 -155.5 25t-118 67.5t-75 101t-26.5 126.5q0 89 35.5 156t100.5 111.5t156.5 66.5t204.5 22h202v85q0 49 -18 88t-51 66.5t-80.5 42.5t-106.5 15q-55 0 -98.5 -14t-73.5 -37t-46.5 -54.5 t-16.5 -65.5h-186q1 59 30.5 116t85 102.5t135 73.5t180.5 28q92 0 171 -22.5t136.5 -68t90.5 -113.5t33 -159v-503q0 -54 10 -114.5t28 -105.5v-16h-38q-78 -42 -125 -97.5t-47 -121.5q0 -34 18 -54.5t60 -20.5q32 -1 58.5 8.5t42.5 17.5l31 -121q-28 -16 -70.5 -30 t-107.5 -14q-41 0 -76 12t-61 36t-41 59.5t-15 82.5q0 68 45.5 135.5t126.5 121.5zM558 141q54 0 101 14t85.5 37t66.5 52.5t44 61.5v219h-172q-162 0 -252 -48t-90 -151q0 -40 13.5 -74t40.5 -58.5t68 -38.5t95 -14z" />
<glyph unicode="&#x106;" d="M1117 438q-13 -101 -52 -185.5t-101.5 -145t-148 -94t-190.5 -33.5q-90 0 -163.5 25.5t-131 70.5t-99 106t-69 133t-41 151t-14.5 160v203q1 81 14.5 160t41 151t69 133.5t99 106.5t130.5 70.5t164 25.5q109 0 195 -33.5t148 -95t99.5 -147.5t49.5 -190h-185 q-9 66 -31 123t-59 100t-90.5 67.5t-126.5 24.5q-66 0 -116.5 -21.5t-87 -58.5t-61 -86t-39.5 -104t-21.5 -112.5t-6.5 -111.5v-205q0 -54 6.5 -111.5t21.5 -113t39 -104.5t61 -86.5t87 -59t117 -21.5q73 0 126.5 23t90.5 64.5t59 98t31 122.5h185zM764 1845h224l-268 -266 h-140z" />
<glyph unicode="&#x107;" d="M635 130q50 0 97.5 16t84.5 44.5t59.5 67t23.5 83.5h175q-1 -72 -37.5 -137.5t-97.5 -115t-140 -79t-165 -29.5q-123 0 -215 44t-153.5 118.5t-92.5 172t-31 205.5v42q0 107 31 205t92.5 172.5t153.5 118.5t215 44q96 0 176.5 -30.5t139 -83t91.5 -124.5t33 -154h-175 q-1 49 -21.5 92.5t-55.5 76.5t-83.5 52t-104.5 19q-86 0 -144.5 -34.5t-94.5 -90t-51.5 -124.5t-15.5 -139v-42q0 -71 15.5 -140.5t51 -125t94 -90t145.5 -34.5zM741 1502h224l-268 -266h-140z" />
<glyph unicode="&#x108;" d="M1117 438q-13 -101 -52 -185.5t-101.5 -145t-148 -94t-190.5 -33.5q-90 0 -163.5 25.5t-131 70.5t-99 106t-69 133t-41 151t-14.5 160v203q1 81 14.5 160t41 151t69 133.5t99 106.5t130.5 70.5t164 25.5q109 0 195 -33.5t148 -95t99.5 -147.5t49.5 -190h-185 q-9 66 -31 123t-59 100t-90.5 67.5t-126.5 24.5q-66 0 -116.5 -21.5t-87 -58.5t-61 -86t-39.5 -104t-21.5 -112.5t-6.5 -111.5v-205q0 -54 6.5 -111.5t21.5 -113t39 -104.5t61 -86.5t87 -59t117 -21.5q73 0 126.5 23t90.5 64.5t59 98t31 122.5h185zM970 1645v-25h-154 l-150 151l-149 -151h-152v26l245 239h112z" />
<glyph unicode="&#x109;" d="M635 130q50 0 97.5 16t84.5 44.5t59.5 67t23.5 83.5h175q-1 -72 -37.5 -137.5t-97.5 -115t-140 -79t-165 -29.5q-123 0 -215 44t-153.5 118.5t-92.5 172t-31 205.5v42q0 107 31 205t92.5 172.5t153.5 118.5t215 44q96 0 176.5 -30.5t139 -83t91.5 -124.5t33 -154h-175 q-1 49 -21.5 92.5t-55.5 76.5t-83.5 52t-104.5 19q-86 0 -144.5 -34.5t-94.5 -90t-51.5 -124.5t-15.5 -139v-42q0 -71 15.5 -140.5t51 -125t94 -90t145.5 -34.5zM947 1302v-25h-154l-150 151l-149 -151h-152v26l245 239h112z" />
<glyph unicode="&#x10a;" d="M1117 438q-13 -101 -52 -185.5t-101.5 -145t-148 -94t-190.5 -33.5q-90 0 -163.5 25.5t-131 70.5t-99 106t-69 133t-41 151t-14.5 160v203q1 81 14.5 160t41 151t69 133.5t99 106.5t130.5 70.5t164 25.5q109 0 195 -33.5t148 -95t99.5 -147.5t49.5 -190h-185 q-9 66 -31 123t-59 100t-90.5 67.5t-126.5 24.5q-66 0 -116.5 -21.5t-87 -58.5t-61 -86t-39.5 -104t-21.5 -112.5t-6.5 -111.5v-205q0 -54 6.5 -111.5t21.5 -113t39 -104.5t61 -86.5t87 -59t117 -21.5q73 0 126.5 23t90.5 64.5t59 98t31 122.5h185zM550 1726q0 48 29 80 t86 32t86 -32t29 -80q0 -46 -29 -77.5t-86 -31.5t-86 31.5t-29 77.5z" />
<glyph unicode="&#x10b;" d="M635 130q50 0 97.5 16t84.5 44.5t59.5 67t23.5 83.5h175q-1 -72 -37.5 -137.5t-97.5 -115t-140 -79t-165 -29.5q-123 0 -215 44t-153.5 118.5t-92.5 172t-31 205.5v42q0 107 31 205t92.5 172.5t153.5 118.5t215 44q96 0 176.5 -30.5t139 -83t91.5 -124.5t33 -154h-175 q-1 49 -21.5 92.5t-55.5 76.5t-83.5 52t-104.5 19q-86 0 -144.5 -34.5t-94.5 -90t-51.5 -124.5t-15.5 -139v-42q0 -71 15.5 -140.5t51 -125t94 -90t145.5 -34.5zM527 1383q0 48 29 80t86 32t86 -32t29 -80q0 -46 -29 -77.5t-86 -31.5t-86 31.5t-29 77.5z" />
<glyph unicode="&#x10c;" d="M1117 438q-13 -101 -52 -185.5t-101.5 -145t-148 -94t-190.5 -33.5q-90 0 -163.5 25.5t-131 70.5t-99 106t-69 133t-41 151t-14.5 160v203q1 81 14.5 160t41 151t69 133.5t99 106.5t130.5 70.5t164 25.5q109 0 195 -33.5t148 -95t99.5 -147.5t49.5 -190h-185 q-9 66 -31 123t-59 100t-90.5 67.5t-126.5 24.5q-66 0 -116.5 -21.5t-87 -58.5t-61 -86t-39.5 -104t-21.5 -112.5t-6.5 -111.5v-205q0 -54 6.5 -111.5t21.5 -113t39 -104.5t61 -86.5t87 -59t117 -21.5q73 0 126.5 23t90.5 64.5t59 98t31 122.5h185zM665 1734l151 152h160 v-18l-254 -248h-114l-251 245v21h157z" />
<glyph unicode="&#x10d;" d="M635 130q50 0 97.5 16t84.5 44.5t59.5 67t23.5 83.5h175q-1 -72 -37.5 -137.5t-97.5 -115t-140 -79t-165 -29.5q-123 0 -215 44t-153.5 118.5t-92.5 172t-31 205.5v42q0 107 31 205t92.5 172.5t153.5 118.5t215 44q96 0 176.5 -30.5t139 -83t91.5 -124.5t33 -154h-175 q-1 49 -21.5 92.5t-55.5 76.5t-83.5 52t-104.5 19q-86 0 -144.5 -34.5t-94.5 -90t-51.5 -124.5t-15.5 -139v-42q0 -71 15.5 -140.5t51 -125t94 -90t145.5 -34.5zM642 1391l151 152h160v-18l-254 -248h-114l-251 245v21h157z" />
<glyph unicode="&#x10e;" d="M155 0v1456h337q152 -2 271.5 -51.5t202 -138t126 -212t44.5 -273.5v-107q-1 -150 -44.5 -273.5t-126 -212t-202 -138t-271.5 -50.5h-337zM343 1304v-1153h149q118 1 204 41.5t142.5 110.5t84 165t28.5 206v109q-1 111 -29 205.5t-84 164t-142 109.5t-204 42h-149z M574 1713l151 152h160v-18l-254 -248h-114l-251 245v21h157z" />
<glyph unicode="&#x10f;" horiz-adv-x="1379" d="M139 550q0 121 30.5 222.5t87 174.5t136.5 114t179 41q97 0 169.5 -32.5t125.5 -94.5v561h185v-1536h-170l-8 114q-54 -66 -129 -100t-175 -34q-98 0 -177.5 42t-135.5 116t-87 174.5t-31 216.5v21zM324 529q0 -79 17 -150t52.5 -125t90.5 -85.5t132 -31.5q47 0 85 11 t69 31.5t55 49t42 63.5v502q-36 66 -97 108.5t-152 42.5q-78 0 -133.5 -32t-91 -86.5t-52.5 -126t-17 -150.5v-21zM1510 1410q0 -47 -11.5 -99t-34 -102.5t-54.5 -96.5t-74 -82l-101 72q47 71 70.5 145t23.5 160v150h181v-147z" />
<glyph unicode="&#x110;" horiz-adv-x="1259" d="M185 0v666h-229v151h229v639h337q152 -2 271.5 -51.5t202 -138t126 -212t44.5 -273.5v-107q-1 -150 -44.5 -273.5t-126 -212t-202 -138t-271.5 -50.5h-337zM593 666h-220v-515h149q118 1 204 41.5t142.5 110.5t84 165t28.5 206v109q-1 111 -29 205.5t-84 164t-142 109.5 t-204 42h-149v-487h220v-151z" />
<glyph unicode="&#x111;" horiz-adv-x="1259" d="M1249 1234h-197v-1234h-170l-8 114q-54 -66 -129 -100t-175 -34q-98 0 -177.5 42t-135.5 116t-87 174.5t-31 216.5v21q0 121 30.5 222.5t87 174.5t136.5 114t179 41q97 0 169.5 -32.5t125.5 -94.5v259h-255v151h255v151h185v-151h197v-151zM324 529q0 -79 17 -150 t52.5 -125t90.5 -85.5t132 -31.5q47 0 85 11t69 31.5t55 49t42 63.5v502q-36 66 -97 108.5t-152 42.5q-78 0 -133.5 -32t-91 -86.5t-52.5 -126t-17 -150.5v-21z" />
<glyph unicode="&#x112;" d="M975 673h-608v-516h709v-157h-894v1456h885v-158h-700v-468h608v-157zM980 1643h-714v143h714v-143z" />
<glyph unicode="&#x113;" d="M652 -20q-114 0 -209.5 39t-163.5 109t-106 166t-38 209v42q0 131 42 234.5t111.5 175t158 109.5t181.5 38q117 0 204.5 -40.5t145.5 -112t86.5 -168.5t28.5 -210v-83h-773q3 -74 28.5 -139t70 -113.5t106.5 -76.5t137 -28q99 0 176 40t128 106l113 -88 q-27 -41 -67.5 -78.5t-93.5 -66.5t-120 -46.5t-146 -17.5zM628 950q-56 0 -106 -20.5t-90 -60t-67.5 -97t-38.5 -132.5h582v14q-3 54 -20.5 107t-51.5 95t-85.5 68t-122.5 26zM981 1322h-714v143h714v-143z" />
<glyph unicode="&#x114;" d="M975 673h-608v-516h709v-157h-894v1456h885v-158h-700v-468h608v-157zM918 1866q0 -59 -21 -108.5t-60 -84.5t-94 -54.5t-123 -19.5q-69 0 -124 19.5t-94 54.5t-60.5 84.5t-21.5 108.5h150q0 -30 9 -57.5t27 -47.5t46 -32t68 -12q39 0 66.5 12t45.5 32t27 47.5t9 57.5 h150z" />
<glyph unicode="&#x115;" d="M652 -20q-114 0 -209.5 39t-163.5 109t-106 166t-38 209v42q0 131 42 234.5t111.5 175t158 109.5t181.5 38q117 0 204.5 -40.5t145.5 -112t86.5 -168.5t28.5 -210v-83h-773q3 -74 28.5 -139t70 -113.5t106.5 -76.5t137 -28q99 0 176 40t128 106l113 -88 q-27 -41 -67.5 -78.5t-93.5 -66.5t-120 -46.5t-146 -17.5zM628 950q-56 0 -106 -20.5t-90 -60t-67.5 -97t-38.5 -132.5h582v14q-3 54 -20.5 107t-51.5 95t-85.5 68t-122.5 26zM919 1545q0 -59 -21 -108.5t-60 -84.5t-94 -54.5t-123 -19.5q-69 0 -124 19.5t-94 54.5 t-60.5 84.5t-21.5 108.5h150q0 -30 9 -57.5t27 -47.5t46 -32t68 -12q39 0 66.5 12t45.5 32t27 47.5t9 57.5h150z" />
<glyph unicode="&#x116;" d="M975 673h-608v-516h709v-157h-894v1456h885v-158h-700v-468h608v-157zM503 1705q0 48 29 80t86 32t86 -32t29 -80q0 -46 -29 -77.5t-86 -31.5t-86 31.5t-29 77.5z" />
<glyph unicode="&#x117;" d="M652 -20q-114 0 -209.5 39t-163.5 109t-106 166t-38 209v42q0 131 42 234.5t111.5 175t158 109.5t181.5 38q117 0 204.5 -40.5t145.5 -112t86.5 -168.5t28.5 -210v-83h-773q3 -74 28.5 -139t70 -113.5t106.5 -76.5t137 -28q99 0 176 40t128 106l113 -88 q-27 -41 -67.5 -78.5t-93.5 -66.5t-120 -46.5t-146 -17.5zM628 950q-56 0 -106 -20.5t-90 -60t-67.5 -97t-38.5 -132.5h582v14q-3 54 -20.5 107t-51.5 95t-85.5 68t-122.5 26zM504 1384q0 48 29 80t86 32t86 -32t29 -80q0 -46 -29 -77.5t-86 -31.5t-86 31.5t-29 77.5z" />
<glyph unicode="&#x118;" d="M975 673h-608v-516h709v-157h-84q-78 -42 -125 -97.5t-47 -121.5q0 -34 18 -54.5t60 -20.5q32 -1 58.5 8.5t42.5 17.5l31 -121q-28 -16 -70.5 -30t-107.5 -14q-41 0 -76 12t-61 36t-41 59.5t-15 82.5q0 63 40 126.5t112 116.5h-629v1456h885v-158h-700v-468h608v-157z " />
<glyph unicode="&#x119;" d="M1079 189q-34 -51 -87.5 -96.5t-128.5 -74.5h1q-78 -42 -125 -97.5t-47 -121.5q0 -34 18 -54.5t60 -20.5q32 -1 58.5 8.5t42.5 17.5l31 -121q-28 -16 -70.5 -30t-107.5 -14q-41 0 -76 12t-61 36t-41 59.5t-15 82.5q0 53 27.5 105.5t78.5 100.5q-111 3 -203.5 43 t-159 109.5t-103 164t-36.5 205.5v42q0 131 42 234.5t111.5 175t158 109.5t181.5 38q117 0 204.5 -40.5t145.5 -112t86.5 -168.5t28.5 -210v-83h-773q3 -74 28.5 -139t70 -113.5t106.5 -76.5t137 -28q99 0 176 40t128 106zM628 950q-56 0 -106 -20.5t-90 -60t-67.5 -97 t-38.5 -132.5h582v14q-3 54 -20.5 107t-51.5 95t-85.5 68t-122.5 26z" />
<glyph unicode="&#x11a;" d="M975 673h-608v-516h709v-157h-894v1456h885v-158h-700v-468h608v-157zM618 1713l151 152h160v-18l-254 -248h-114l-251 245v21h157z" />
<glyph unicode="&#x11b;" d="M652 -20q-114 0 -209.5 39t-163.5 109t-106 166t-38 209v42q0 131 42 234.5t111.5 175t158 109.5t181.5 38q117 0 204.5 -40.5t145.5 -112t86.5 -168.5t28.5 -210v-83h-773q3 -74 28.5 -139t70 -113.5t106.5 -76.5t137 -28q99 0 176 40t128 106l113 -88 q-27 -41 -67.5 -78.5t-93.5 -66.5t-120 -46.5t-146 -17.5zM628 950q-56 0 -106 -20.5t-90 -60t-67.5 -97t-38.5 -132.5h582v14q-3 54 -20.5 107t-51.5 95t-85.5 68t-122.5 26zM619 1392l151 152h160v-18l-254 -248h-114l-251 245v21h157z" />
<glyph unicode="&#x11c;" d="M1116 191q-92 -108 -211 -160t-261 -51q-90 1 -165.5 27.5t-135.5 73t-105 109.5t-75.5 136.5t-46 154t-16.5 162.5v169q1 81 14.5 161.5t41.5 154.5t70 137.5t100.5 110t132.5 73.5t166 27q102 0 188 -31.5t150 -90t103 -141t48 -184.5h-183q-11 63 -34 116.5 t-60.5 91.5t-89.5 59.5t-121 21.5q-66 0 -117 -22.5t-89 -60.5t-63 -88.5t-41 -106.5t-23 -114t-7 -112v-171q1 -55 9.5 -113.5t26.5 -114.5t46 -106t67.5 -88t91.5 -60.5t118 -23.5q38 -1 79.5 3t80.5 16t73 32.5t57 53.5l2 327h-296v156h472zM943 1645v-25h-154l-150 151 l-149 -151h-152v26l245 239h112z" />
<glyph unicode="&#x11d;" d="M140 550q0 121 29.5 222.5t85.5 174.5t136 114t181 41q100 0 175.5 -35.5t128.5 -102.5l9 118h168v-1059q0 -107 -33.5 -190t-94 -141t-144.5 -88t-186 -30q-42 0 -96 9.5t-109.5 31t-107 57.5t-88.5 89l96 111q34 -41 70 -69.5t73 -45.5t74 -24.5t74 -7.5q66 0 119 19 t90.5 55.5t57.5 90.5t20 124v93q-54 -62 -127.5 -94.5t-170.5 -32.5q-99 0 -179 42t-135.5 116t-85.5 174.5t-30 216.5v21zM325 529q0 -79 16.5 -150t52 -125t90.5 -85.5t132 -31.5q48 0 86.5 11.5t69 32.5t54.5 50t42 64v496q-18 34 -42 62t-55 48.5t-69 32t-84 11.5 q-78 0 -133.5 -32t-91 -86.5t-52 -126t-16.5 -150.5v-21zM907 1302v-25h-154l-150 151l-149 -151h-152v26l245 239h112z" />
<glyph unicode="&#x11e;" d="M1116 191q-92 -108 -211 -160t-261 -51q-90 1 -165.5 27.5t-135.5 73t-105 109.5t-75.5 136.5t-46 154t-16.5 162.5v169q1 81 14.5 161.5t41.5 154.5t70 137.5t100.5 110t132.5 73.5t166 27q102 0 188 -31.5t150 -90t103 -141t48 -184.5h-183q-11 63 -34 116.5 t-60.5 91.5t-89.5 59.5t-121 21.5q-66 0 -117 -22.5t-89 -60.5t-63 -88.5t-41 -106.5t-23 -114t-7 -112v-171q1 -55 9.5 -113.5t26.5 -114.5t46 -106t67.5 -88t91.5 -60.5t118 -23.5q38 -1 79.5 3t80.5 16t73 32.5t57 53.5l2 327h-296v156h472zM938 1887q0 -59 -21 -108.5 t-60 -84.5t-94 -54.5t-123 -19.5q-69 0 -124 19.5t-94 54.5t-60.5 84.5t-21.5 108.5h150q0 -30 9 -57.5t27 -47.5t46 -32t68 -12q39 0 66.5 12t45.5 32t27 47.5t9 57.5h150z" />
<glyph unicode="&#x11f;" d="M140 550q0 121 29.5 222.5t85.5 174.5t136 114t181 41q100 0 175.5 -35.5t128.5 -102.5l9 118h168v-1059q0 -107 -33.5 -190t-94 -141t-144.5 -88t-186 -30q-42 0 -96 9.5t-109.5 31t-107 57.5t-88.5 89l96 111q34 -41 70 -69.5t73 -45.5t74 -24.5t74 -7.5q66 0 119 19 t90.5 55.5t57.5 90.5t20 124v93q-54 -62 -127.5 -94.5t-170.5 -32.5q-99 0 -179 42t-135.5 116t-85.5 174.5t-30 216.5v21zM325 529q0 -79 16.5 -150t52 -125t90.5 -85.5t132 -31.5q48 0 86.5 11.5t69 32.5t54.5 50t42 64v496q-18 34 -42 62t-55 48.5t-69 32t-84 11.5 q-78 0 -133.5 -32t-91 -86.5t-52 -126t-16.5 -150.5v-21zM903 1544q0 -59 -21 -108.5t-60 -84.5t-94 -54.5t-123 -19.5q-69 0 -124 19.5t-94 54.5t-60.5 84.5t-21.5 108.5h150q0 -30 9 -57.5t27 -47.5t46 -32t68 -12q39 0 66.5 12t45.5 32t27 47.5t9 57.5h150z" />
<glyph unicode="&#x120;" d="M1116 191q-92 -108 -211 -160t-261 -51q-90 1 -165.5 27.5t-135.5 73t-105 109.5t-75.5 136.5t-46 154t-16.5 162.5v169q1 81 14.5 161.5t41.5 154.5t70 137.5t100.5 110t132.5 73.5t166 27q102 0 188 -31.5t150 -90t103 -141t48 -184.5h-183q-11 63 -34 116.5 t-60.5 91.5t-89.5 59.5t-121 21.5q-66 0 -117 -22.5t-89 -60.5t-63 -88.5t-41 -106.5t-23 -114t-7 -112v-171q1 -55 9.5 -113.5t26.5 -114.5t46 -106t67.5 -88t91.5 -60.5t118 -23.5q38 -1 79.5 3t80.5 16t73 32.5t57 53.5l2 327h-296v156h472zM523 1726q0 48 29 80t86 32 t86 -32t29 -80q0 -46 -29 -77.5t-86 -31.5t-86 31.5t-29 77.5z" />
<glyph unicode="&#x121;" d="M140 550q0 121 29.5 222.5t85.5 174.5t136 114t181 41q100 0 175.5 -35.5t128.5 -102.5l9 118h168v-1059q0 -107 -33.5 -190t-94 -141t-144.5 -88t-186 -30q-42 0 -96 9.5t-109.5 31t-107 57.5t-88.5 89l96 111q34 -41 70 -69.5t73 -45.5t74 -24.5t74 -7.5q66 0 119 19 t90.5 55.5t57.5 90.5t20 124v93q-54 -62 -127.5 -94.5t-170.5 -32.5q-99 0 -179 42t-135.5 116t-85.5 174.5t-30 216.5v21zM325 529q0 -79 16.5 -150t52 -125t90.5 -85.5t132 -31.5q48 0 86.5 11.5t69 32.5t54.5 50t42 64v496q-18 34 -42 62t-55 48.5t-69 32t-84 11.5 q-78 0 -133.5 -32t-91 -86.5t-52 -126t-16.5 -150.5v-21zM488 1383q0 48 29 80t86 32t86 -32t29 -80q0 -46 -29 -77.5t-86 -31.5t-86 31.5t-29 77.5z" />
<glyph unicode="&#x122;" d="M1116 191q-92 -108 -211 -160t-261 -51q-90 1 -165.5 27.5t-135.5 73t-105 109.5t-75.5 136.5t-46 154t-16.5 162.5v169q1 81 14.5 161.5t41.5 154.5t70 137.5t100.5 110t132.5 73.5t166 27q102 0 188 -31.5t150 -90t103 -141t48 -184.5h-183q-11 63 -34 116.5 t-60.5 91.5t-89.5 59.5t-121 21.5q-66 0 -117 -22.5t-89 -60.5t-63 -88.5t-41 -106.5t-23 -114t-7 -112v-171q1 -55 9.5 -113.5t26.5 -114.5t46 -106t67.5 -88t91.5 -60.5t118 -23.5q38 -1 79.5 3t80.5 16t73 32.5t57 53.5l2 327h-296v156h472zM729 -136q0 -42 -8.5 -88 t-26.5 -91t-45.5 -86.5t-64.5 -73.5l-105 72q37 62 55.5 125.5t18.5 138.5v73h176v-70z" />
<glyph unicode="&#x123;" d="M140 550q0 121 29.5 222.5t85.5 174.5t136 114t181 41q100 0 175.5 -35.5t128.5 -102.5l9 118h168v-1059q0 -107 -33.5 -190t-94 -141t-144.5 -88t-186 -30q-42 0 -96 9.5t-109.5 31t-107 57.5t-88.5 89l96 111q34 -41 70 -69.5t73 -45.5t74 -24.5t74 -7.5q66 0 119 19 t90.5 55.5t57.5 90.5t20 124v93q-54 -62 -127.5 -94.5t-170.5 -32.5q-99 0 -179 42t-135.5 116t-85.5 174.5t-30 216.5v21zM325 529q0 -79 16.5 -150t52 -125t90.5 -85.5t132 -31.5q48 0 86.5 11.5t69 32.5t54.5 50t42 64v496q-18 34 -42 62t-55 48.5t-69 32t-84 11.5 q-78 0 -133.5 -32t-91 -86.5t-52 -126t-16.5 -150.5v-21zM512 1383q0 44 13 88.5t33.5 84.5t45 73t48.5 54l107 -83q-35 -59 -48.5 -112t-13.5 -114v-120h-185v129z" />
<glyph unicode="&#x124;" d="M1087 0h-175v673h-597v-673h-174v1456h174v-626h597v626h175v-1456zM911 1624v-25h-154l-150 151l-149 -151h-152v26l245 239h112z" />
<glyph unicode="&#x125;" d="M359 921q58 85 143 132.5t191 48.5q85 0 154.5 -24.5t118.5 -76.5t75.5 -131.5t26.5 -188.5v-681h-185v683q0 133 -63.5 198t-181.5 64q-89 0 -161.5 -43.5t-117.5 -115.5v-786h-185v1536h185v-615zM834 1663v-25h-154l-150 151l-149 -151h-152v26l245 239h112z" />
<glyph unicode="&#x126;" d="M1084 1167h128v-143h-128v-1024h-175v673h-597v-673h-174v1024h-114v143h114v289h174v-289h597v289h175v-289zM312 830h597v194h-597v-194z" />
<glyph unicode="&#x127;" horiz-adv-x="1259" d="M663 1234h-274v-313q58 85 143 132.5t191 48.5q85 0 154.5 -24.5t118.5 -76.5t75.5 -131.5t26.5 -188.5v-681h-185v683q0 133 -63.5 198t-181.5 64q-89 0 -161.5 -43.5t-117.5 -115.5v-786h-185v1234h-178v151h178v151h185v-151h274v-151z" />
<glyph unicode="&#x128;" d="M174 1456h880v-161h-349v-1135h349v-160h-880v160h341v1135h-341v161zM911 1844q0 -45 -15.5 -86t-42.5 -71.5t-65 -48.5t-83 -18q-33 0 -59 7t-47.5 17.5t-40.5 23t-38.5 23t-41.5 17.5t-49 7q-44 0 -72.5 -32.5t-29.5 -78.5l-104 24q0 45 15.5 86.5t42.5 73t64.5 50.5 t83.5 19q42 0 75.5 -15t65 -32.5t64 -32.5t71.5 -15q21 0 40 9t32.5 24t22 35.5t8.5 43.5z" />
<glyph unicode="&#x129;" d="M203 1082h553v-922h353v-160h-906v160h368v761h-368v161zM1010 1501q0 -45 -15.5 -86t-42.5 -71.5t-65 -48.5t-83 -18q-33 0 -59 7t-47.5 17.5t-40.5 23t-38.5 23t-41.5 17.5t-49 7q-44 0 -72.5 -32.5t-29.5 -78.5l-104 24q0 45 15.5 86.5t42.5 73t64.5 50.5t83.5 19 q42 0 75.5 -15t65 -32.5t64 -32.5t71.5 -15q21 0 40 9t32.5 24t22 35.5t8.5 43.5z" />
<glyph unicode="&#x12a;" d="M174 1456h880v-161h-349v-1135h349v-160h-880v160h341v1135h-341v161zM929 1643h-714v143h714v-143z" />
<glyph unicode="&#x12b;" d="M203 1082h553v-922h353v-160h-906v160h368v761h-368v161zM1027 1301h-714v143h714v-143z" />
<glyph unicode="&#x12c;" d="M174 1456h880v-161h-349v-1135h349v-160h-880v160h341v1135h-341v161zM867 1866q0 -59 -21 -108.5t-60 -84.5t-94 -54.5t-123 -19.5q-69 0 -124 19.5t-94 54.5t-60.5 84.5t-21.5 108.5h150q0 -30 9 -57.5t27 -47.5t46 -32t68 -12q39 0 66.5 12t45.5 32t27 47.5t9 57.5 h150z" />
<glyph unicode="&#x12d;" d="M203 1082h553v-922h353v-160h-906v160h368v761h-368v161zM965 1523q0 -59 -21 -108.5t-60 -84.5t-94 -54.5t-123 -19.5q-69 0 -124 19.5t-94 54.5t-60.5 84.5t-21.5 108.5h150q0 -30 9 -57.5t27 -47.5t46 -32t68 -12q39 0 66.5 12t45.5 32t27 47.5t9 57.5h150z" />
<glyph unicode="&#x12e;" d="M174 1456h880v-161h-349v-1135h349v-160h-292q-78 -42 -125 -97.5t-47 -121.5q0 -34 18 -54.5t60 -20.5q32 -1 58.5 8.5t42.5 17.5l31 -121q-28 -16 -70.5 -30t-107.5 -14q-41 0 -76 12t-61 36t-41 59.5t-15 82.5q0 63 40 126.5t112 116.5h-407v160h341v1135h-341v161z " />
<glyph unicode="&#x12f;" d="M203 1082h553v-922h353v-160h-353q-78 -42 -125 -97.5t-47 -121.5q0 -34 18 -54.5t60 -20.5q32 -1 58.5 8.5t42.5 17.5l31 -121q-28 -16 -70.5 -30t-107.5 -14q-41 0 -76 12t-61 36t-41 59.5t-15 82.5q0 63 40 126.5t112 116.5h-372v160h368v761h-368v161zM547 1366 q0 46 27.5 77.5t83.5 31.5q55 0 83 -31.5t28 -77.5q0 -45 -28 -75t-83 -30q-56 0 -83.5 30t-27.5 75z" />
<glyph unicode="&#x130;" d="M174 1456h880v-161h-349v-1135h349v-160h-880v160h341v1135h-341v161zM452 1705q0 48 29 80t86 32t86 -32t29 -80q0 -46 -29 -77.5t-86 -31.5t-86 31.5t-29 77.5z" />
<glyph unicode="&#x131;" d="M203 1082h553v-922h353v-160h-906v160h368v761h-368v161z" />
<glyph unicode="&#x132;" d="M313 0h-185v1456h185v-1456zM915 1456h185v-1133q0 -81 -20.5 -144.5t-63 -107.5t-107 -67t-151.5 -23q-73 0 -134.5 20.5t-105.5 62.5t-69 106t-25 151h186q0 -99 40 -144t108 -45q46 0 76 13.5t48 38t25.5 60t7.5 79.5v1133z" />
<glyph unicode="&#x133;" d="M686 1082h407v-1087q0 -104 -28.5 -183.5t-83 -134.5t-133 -83t-178.5 -28q-57 0 -106.5 3.5t-104.5 13.5l13 158q17 -3 43 -5.5t53 -4t51 -2t38 -0.5q52 0 98 12.5t80 43t53.5 82t19.5 128.5v926h-222v161zM85 1082h420v-922h223v-160h-648v160h239v761h-234v161z M881 1363q0 45 27 76.5t83 31.5t84 -31.5t28 -76.5t-28 -75.5t-84 -30.5t-83 30.5t-27 75.5zM303 1362q0 45 27.5 76.5t83.5 31.5q55 0 83 -31.5t28 -76.5t-28 -75.5t-83 -30.5q-56 0 -83.5 30.5t-27.5 75.5z" />
<glyph unicode="&#x134;" d="M857 1456h189v-1013q-2 -101 -38.5 -186t-99.5 -146.5t-148.5 -96t-186.5 -34.5q-102 0 -185.5 31t-145 88.5t-98.5 139t-46 182.5h188q3 -61 24.5 -113t58.5 -90.5t88.5 -59.5t115.5 -21q66 0 118 24.5t88.5 66.5t56 97.5t21.5 117.5v1013zM1247 1611v-25h-154l-150 151 l-149 -151h-152v26l245 239h112z" />
<glyph unicode="&#x135;" d="M260 1082h550v-1089q0 -104 -28.5 -184t-83 -134.5t-133 -83t-178.5 -28.5q-57 0 -106.5 3.5t-104.5 13.5l13 152q17 -3 42.5 -5.5t52.5 -4t51.5 -2t38.5 -0.5q52 0 97.5 13.5t79.5 45.5t53.5 84.5t19.5 129.5v928h-364v161zM1013 1272v-25h-154l-150 151l-149 -151h-152 v26l245 239h112z" />
<glyph unicode="&#x136;" d="M523 676l-162 -184v-492h-189v1456h189v-711l141 176l427 535h225l-509 -637l543 -819h-225zM734 -111q0 -42 -8.5 -88t-26.5 -91t-45.5 -86.5t-64.5 -73.5l-105 72q37 62 55.5 125.5t18.5 138.5v73h176v-70z" />
<glyph unicode="&#x137;" d="M498 505l-136 -131v-374h-186v1536h186v-940l121 130l355 356h225l-438 -451l505 -631h-235zM650 -109q0 -42 -8.5 -88t-26.5 -91t-45.5 -86.5t-64.5 -73.5l-105 72q37 62 55.5 125.5t18.5 138.5v73h176v-70z" />
<glyph unicode="&#x138;" d="M521 477l-150 -133v-344h-185v1082h185v-531l110 120l398 411h223l-456 -479l492 -603h-234z" />
<glyph unicode="&#x139;" d="M383 157h712v-157h-897v1456h185v-1299zM392 1792h224l-268 -266h-140z" />
<glyph unicode="&#x13a;" d="M203 1536h553v-1376h353v-160h-906v160h368v1215h-368v161zM756 1894h224l-268 -266h-140z" />
<glyph unicode="&#x13b;" d="M383 157h712v-157h-897v1456h185v-1299zM735 -117q0 -42 -8.5 -88t-26.5 -91t-45.5 -86.5t-64.5 -73.5l-105 72q37 62 55.5 125.5t18.5 138.5v73h176v-70z" />
<glyph unicode="&#x13c;" d="M203 1536h553v-1376h353v-160h-906v160h368v1215h-368v161zM762 -116q0 -42 -8.5 -88t-26.5 -91t-45.5 -86.5t-64.5 -73.5l-105 72q37 62 55.5 125.5t18.5 138.5v73h176v-70z" />
<glyph unicode="&#x13d;" d="M383 157h712v-157h-897v1456h185v-1299zM978 1309q0 -47 -11.5 -99t-34 -102.5t-54.5 -96.5t-74 -82l-101 72q47 71 70.5 145t23.5 160v150h181v-147z" />
<glyph unicode="&#x13e;" horiz-adv-x="1379" d="M203 1536h553v-1376h353v-160h-906v160h368v1215h-368v161zM1249 1393q0 -47 -11.5 -99t-34 -102.5t-54.5 -96.5t-74 -82l-101 72q47 71 70.5 145t23.5 160v150h181v-147z" />
<glyph unicode="&#x13f;" d="M383 157h712v-157h-897v1456h185v-1299zM614 787q0 48 29 80t86 32t86 -32t29 -80q0 -46 -29 -77.5t-86 -31.5t-86 31.5t-29 77.5z" />
<glyph unicode="&#x140;" horiz-adv-x="1449" d="M203 1536h553v-1376h353v-160h-906v160h368v1215h-368v161zM882 821q0 48 29 80t86 32t86 -32t29 -80q0 -46 -29 -77.5t-86 -31.5t-86 31.5t-29 77.5z" />
<glyph unicode="&#x141;" d="M387 845l262 83v-162l-262 -83v-526h712v-157h-897v624l-144 -45v162l144 45v670h185v-611z" />
<glyph unicode="&#x142;" d="M756 973l290 132l-1 -162l-289 -132v-651h353v-160h-906v160h368v566l-339 -154v162l339 154v487h-368v161h553v-563z" />
<glyph unicode="&#x143;" d="M1086 0h-188l-565 1088l-3 -1088h-187v1456h188l565 -1086l3 1086h187v-1456zM688 1824h224l-268 -266h-140z" />
<glyph unicode="&#x144;" d="M340 1082l13 -160q59 84 145 131.5t192 48.5q85 0 154.5 -24t118.5 -75t75.5 -129.5t26.5 -186.5v-687h-185v683q0 72 -16 122t-47.5 81t-77 45t-104.5 14q-93 0 -163.5 -46.5t-112.5 -122.5v-776h-185v1082h166zM703 1502h224l-268 -266h-140z" />
<glyph unicode="&#x145;" d="M1086 0h-188l-565 1088l-3 -1088h-187v1456h188l565 -1086l3 1086h187v-1456zM684 -117q0 -42 -8.5 -88t-26.5 -91t-45.5 -86.5t-64.5 -73.5l-105 72q37 62 55.5 125.5t18.5 138.5v73h176v-70z" />
<glyph unicode="&#x146;" d="M340 1082l13 -160q59 84 145 131.5t192 48.5q85 0 154.5 -24t118.5 -75t75.5 -129.5t26.5 -186.5v-687h-185v683q0 72 -16 122t-47.5 81t-77 45t-104.5 14q-93 0 -163.5 -46.5t-112.5 -122.5v-776h-185v1082h166zM699 -117q0 -42 -8.5 -88t-26.5 -91t-45.5 -86.5 t-64.5 -73.5l-105 72q37 62 55.5 125.5t18.5 138.5v73h176v-70z" />
<glyph unicode="&#x147;" d="M1086 0h-188l-565 1088l-3 -1088h-187v1456h188l565 -1086l3 1086h187v-1456zM590 1713l151 152h160v-18l-254 -248h-114l-251 245v21h157z" />
<glyph unicode="&#x148;" d="M340 1082l13 -160q59 84 145 131.5t192 48.5q85 0 154.5 -24t118.5 -75t75.5 -129.5t26.5 -186.5v-687h-185v683q0 72 -16 122t-47.5 81t-77 45t-104.5 14q-93 0 -163.5 -46.5t-112.5 -122.5v-776h-185v1082h166zM605 1391l151 152h160v-18l-254 -248h-114l-251 245v21 h157z" />
<glyph unicode="&#x149;" d="M340 1082l13 -160q59 84 145 131.5t192 48.5q85 0 154.5 -24t118.5 -75t75.5 -129.5t26.5 -186.5v-687h-185v683q0 72 -16 122t-47.5 81t-77 45t-104.5 14q-93 0 -163.5 -46.5t-112.5 -122.5v-776h-185v1082h166zM205 1411q0 -47 -11.5 -99t-34 -102.5t-54.5 -96.5 t-74 -82l-101 72q47 71 70.5 145t23.5 160v150h181v-147z" />
<glyph unicode="&#x14a;" d="M1052 1456l1 -1545q0 -82 -21.5 -146.5t-62 -109.5t-99.5 -68.5t-135 -23.5q-30 0 -55.5 4t-54.5 14l14 147q8 -3 21.5 -5.5t28 -4t27.5 -2.5t19 -1q65 0 98.5 54.5t33.5 141.5v91l-507 1067v-1069h-185v1456h185l507 -1067v1067h185z" />
<glyph unicode="&#x14b;" d="M350 1082l12 -154q54 81 133.5 127.5t185.5 46.5q86 0 154 -25t115 -76.5t72 -131t25 -187.5v-771q0 -167 -84.5 -257t-238.5 -91q-30 0 -57 4t-57 14l14 157q9 -3 23 -5.5t29 -4t28 -2.5t20 -1q67 0 102.5 48t35.5 138v767q0 143 -59 205t-177 62q-94 0 -157 -36.5 t-100 -98.5v-810h-185v1082h166z" />
<glyph unicode="&#x14c;" d="M1121 644q-1 -78 -13.5 -157.5t-38.5 -153.5t-66.5 -138t-96.5 -112t-128.5 -75.5t-162.5 -27.5t-162.5 27.5t-128.5 75.5t-97 112.5t-67.5 138.5t-39.5 153t-14 157v166q1 78 13.5 157.5t39 153.5t67 138.5t96.5 113t128.5 76t162.5 27.5t163 -27.5t129 -75.5 t96.5 -112.5t67 -138.5t39 -154t13.5 -158v-166zM938 812q-1 52 -7 108.5t-20.5 112t-38.5 106t-60 89t-85 61t-114 22.5q-64 0 -113 -23t-85 -61.5t-60 -89t-38.5 -106t-21 -112t-7.5 -107.5v-168q1 -51 7.5 -108t21.5 -112.5t39 -106.5t60 -89.5t85 -61.5t114 -23 t114.5 23t85 61.5t59 89t38 106t20 112.5t6.5 109v168zM994 1664h-714v143h714v-143z" />
<glyph unicode="&#x14d;" d="M122 551q0 117 34 217.5t97.5 174.5t154.5 116.5t205 42.5q115 0 206.5 -42.5t155 -116.5t97.5 -174.5t34 -217.5v-22q0 -117 -34 -217t-97.5 -174t-154.5 -116t-205 -42q-115 0 -206.5 42t-155 116t-97.5 174t-34 217v22zM307 529q0 -80 19 -152.5t57.5 -127.5t96.5 -87 t135 -32q76 0 133.5 32t96 87t57.5 127.5t19 152.5v22q0 79 -19.5 151.5t-58 127.5t-96 87.5t-134.5 32.5t-134 -32.5t-95.5 -87.5t-57.5 -127.5t-19 -151.5v-22zM975 1321h-714v143h714v-143z" />
<glyph unicode="&#x14e;" d="M1121 644q-1 -78 -13.5 -157.5t-38.5 -153.5t-66.5 -138t-96.5 -112t-128.5 -75.5t-162.5 -27.5t-162.5 27.5t-128.5 75.5t-97 112.5t-67.5 138.5t-39.5 153t-14 157v166q1 78 13.5 157.5t39 153.5t67 138.5t96.5 113t128.5 76t162.5 27.5t163 -27.5t129 -75.5 t96.5 -112.5t67 -138.5t39 -154t13.5 -158v-166zM938 812q-1 52 -7 108.5t-20.5 112t-38.5 106t-60 89t-85 61t-114 22.5q-64 0 -113 -23t-85 -61.5t-60 -89t-38.5 -106t-21 -112t-7.5 -107.5v-168q1 -51 7.5 -108t21.5 -112.5t39 -106.5t60 -89.5t85 -61.5t114 -23 t114.5 23t85 61.5t59 89t38 106t20 112.5t6.5 109v168zM932 1887q0 -59 -21 -108.5t-60 -84.5t-94 -54.5t-123 -19.5q-69 0 -124 19.5t-94 54.5t-60.5 84.5t-21.5 108.5h150q0 -30 9 -57.5t27 -47.5t46 -32t68 -12q39 0 66.5 12t45.5 32t27 47.5t9 57.5h150z" />
<glyph unicode="&#x14f;" d="M122 551q0 117 34 217.5t97.5 174.5t154.5 116.5t205 42.5q115 0 206.5 -42.5t155 -116.5t97.5 -174.5t34 -217.5v-22q0 -117 -34 -217t-97.5 -174t-154.5 -116t-205 -42q-115 0 -206.5 42t-155 116t-97.5 174t-34 217v22zM307 529q0 -80 19 -152.5t57.5 -127.5t96.5 -87 t135 -32q76 0 133.5 32t96 87t57.5 127.5t19 152.5v22q0 79 -19.5 151.5t-58 127.5t-96 87.5t-134.5 32.5t-134 -32.5t-95.5 -87.5t-57.5 -127.5t-19 -151.5v-22zM913 1544q0 -59 -21 -108.5t-60 -84.5t-94 -54.5t-123 -19.5q-69 0 -124 19.5t-94 54.5t-60.5 84.5 t-21.5 108.5h150q0 -30 9 -57.5t27 -47.5t46 -32t68 -12q39 0 66.5 12t45.5 32t27 47.5t9 57.5h150z" />
<glyph unicode="&#x150;" d="M1121 644q-1 -78 -13.5 -157.5t-38.5 -153.5t-66.5 -138t-96.5 -112t-128.5 -75.5t-162.5 -27.5t-162.5 27.5t-128.5 75.5t-97 112.5t-67.5 138.5t-39.5 153t-14 157v166q1 78 13.5 157.5t39 153.5t67 138.5t96.5 113t128.5 76t162.5 27.5t163 -27.5t129 -75.5 t96.5 -112.5t67 -138.5t39 -154t13.5 -158v-166zM938 812q-1 52 -7 108.5t-20.5 112t-38.5 106t-60 89t-85 61t-114 22.5q-64 0 -113 -23t-85 -61.5t-60 -89t-38.5 -106t-21 -112t-7.5 -107.5v-168q1 -51 7.5 -108t21.5 -112.5t39 -106.5t60 -89.5t85 -61.5t114 -23 t114.5 23t85 61.5t59 89t38 106t20 112.5t6.5 109v168zM910 1887h225l-305 -269h-169zM587 1887h207l-245 -269h-150z" />
<glyph unicode="&#x151;" d="M122 551q0 117 34 217.5t97.5 174.5t154.5 116.5t205 42.5q115 0 206.5 -42.5t155 -116.5t97.5 -174.5t34 -217.5v-22q0 -117 -34 -217t-97.5 -174t-154.5 -116t-205 -42q-115 0 -206.5 42t-155 116t-97.5 174t-34 217v22zM307 529q0 -80 19 -152.5t57.5 -127.5t96.5 -87 t135 -32q76 0 133.5 32t96 87t57.5 127.5t19 152.5v22q0 79 -19.5 151.5t-58 127.5t-96 87.5t-134.5 32.5t-134 -32.5t-95.5 -87.5t-57.5 -127.5t-19 -151.5v-22zM891 1544h225l-305 -269h-169zM568 1544h207l-245 -269h-150z" />
<glyph unicode="&#x152;" d="M1190 0h-428q-62 -7 -128 -13.5t-135 -6.5q-97 0 -174.5 33.5t-132 99.5t-84 163.5t-29.5 225.5v451q0 128 29 225.5t83 163.5t131.5 100t174.5 34q69 0 136 -6t129 -14h418v-152h-397v-476h344v-152h-344v-525h407v-151zM499 131q49 0 99 3v1186q-25 2 -50 3t-51 1 q-57 0 -101 -18.5t-73 -61.5t-44 -113.5t-15 -175.5v-453q0 -105 15 -176.5t45 -114.5t74 -61.5t101 -18.5z" />
<glyph unicode="&#x153;" d="M46 639q0 105 22.5 190t66 146t107.5 94t146 33q84 0 148 -33.5t108 -95.5q45 63 105 96t130 33q83 0 143.5 -32t100 -89t58.5 -135t19 -169v-181h-458v-64q0 -68 10 -123.5t30 -95.5t51 -61.5t74 -21.5q68 0 113.5 21t77.5 49l55 -126q-17 -18 -39.5 -35t-52.5 -30 t-68 -21t-86 -8q-87 0 -152.5 32.5t-110.5 94.5q-44 -61 -107.5 -94t-146.5 -33t-147 33t-108 93t-66.5 145t-22.5 190v198zM232 441q0 -68 8.5 -125.5t27.5 -98.5t49 -64t73 -23q42 0 71.5 23t48.5 64t28 98.5t9 125.5v198q0 68 -9 125t-28 98.5t-49.5 64.5t-72.5 23 t-71.5 -23.5t-48 -64.5t-27.5 -98.5t-9 -124.5v-198zM742 647h273v85q0 42 -7.5 81t-24 69.5t-42 49t-62.5 18.5q-32 0 -57.5 -21.5t-43 -60.5t-27 -94.5t-9.5 -122.5v-4z" />
<glyph unicode="&#x154;" d="M656 594h-291v-594h-184v1456h427q102 -2 192 -29t157.5 -81t106 -135.5t38.5 -191.5q0 -71 -20.5 -130t-56.5 -107t-86 -85t-110 -63l309 -622l-1 -12h-195zM365 746h248q62 1 117 19.5t96.5 53.5t65.5 85.5t24 116.5q0 70 -23 122.5t-64 88t-97.5 53.5t-123.5 19h-243 v-558zM714 1812h224l-268 -266h-140z" />
<glyph unicode="&#x155;" d="M883 1102q26 0 54 -1.5t53.5 -5t47 -8.5t35.5 -11l-25 -181q-54 12 -102.5 17.5t-101.5 5.5q-130 0 -210.5 -59t-118.5 -165v-694h-186v1082h176l9 -172q66 89 158.5 140.5t210.5 51.5zM682 1502h224l-268 -266h-140z" />
<glyph unicode="&#x156;" d="M656 594h-291v-594h-184v1456h427q102 -2 192 -29t157.5 -81t106 -135.5t38.5 -191.5q0 -71 -20.5 -130t-56.5 -107t-86 -85t-110 -63l309 -622l-1 -12h-195zM365 746h248q62 1 117 19.5t96.5 53.5t65.5 85.5t24 116.5q0 70 -23 122.5t-64 88t-97.5 53.5t-123.5 19h-243 v-558zM708 -117q0 -42 -8.5 -88t-26.5 -91t-45.5 -86.5t-64.5 -73.5l-105 72q37 62 55.5 125.5t18.5 138.5v73h176v-70z" />
<glyph unicode="&#x157;" d="M883 1102q26 0 54 -1.5t53.5 -5t47 -8.5t35.5 -11l-25 -181q-54 12 -102.5 17.5t-101.5 5.5q-130 0 -210.5 -59t-118.5 -165v-694h-186v1082h176l9 -172q66 89 158.5 140.5t210.5 51.5zM522 -117q0 -42 -8.5 -88t-26.5 -91t-45.5 -86.5t-64.5 -73.5l-105 72 q37 62 55.5 125.5t18.5 138.5v73h176v-70z" />
<glyph unicode="&#x158;" d="M656 594h-291v-594h-184v1456h427q102 -2 192 -29t157.5 -81t106 -135.5t38.5 -191.5q0 -71 -20.5 -130t-56.5 -107t-86 -85t-110 -63l309 -622l-1 -12h-195zM365 746h248q62 1 117 19.5t96.5 53.5t65.5 85.5t24 116.5q0 70 -23 122.5t-64 88t-97.5 53.5t-123.5 19h-243 v-558zM615 1701l151 152h160v-18l-254 -248h-114l-251 245v21h157z" />
<glyph unicode="&#x159;" d="M883 1102q26 0 54 -1.5t53.5 -5t47 -8.5t35.5 -11l-25 -181q-54 12 -102.5 17.5t-101.5 5.5q-130 0 -210.5 -59t-118.5 -165v-694h-186v1082h176l9 -172q66 89 158.5 140.5t210.5 51.5zM584 1391l151 152h160v-18l-254 -248h-114l-251 245v21h157z" />
<glyph unicode="&#x15a;" d="M936 368q0 67 -30.5 113t-78.5 77.5t-105.5 52.5t-110.5 38q-77 25 -156.5 60t-145 86t-107 120.5t-41.5 163.5t41.5 168t108.5 125t152 77.5t171 26.5q95 0 183 -31.5t156 -88.5t109 -138t43 -181h-190q-8 63 -31 114.5t-61 88.5t-90.5 57.5t-118.5 20.5 q-53 0 -103.5 -15t-90 -45t-63 -74t-23.5 -102q1 -63 32 -106.5t78.5 -73.5t103 -50t104.5 -35q54 -17 109 -38.5t106 -49.5t95 -63t77 -79.5t51.5 -98t18.5 -118.5q0 -98 -43.5 -171t-112.5 -121.5t-156 -73t-174 -24.5q-97 0 -190 30t-166.5 86.5t-119.5 138t-49 185.5 h189q9 -68 37 -120.5t72 -89t101.5 -55t125.5 -18.5q54 0 106.5 13.5t93.5 42t67 72t26 103.5zM724 1845h224l-268 -266h-140z" />
<glyph unicode="&#x15b;" d="M893 287q0 33 -13 59.5t-44 48.5t-82 40.5t-127 33.5q-93 19 -169.5 46t-131 64.5t-84.5 88t-30 117.5q0 66 31 123.5t87 100.5t133.5 68t170.5 25q100 0 180 -26t136 -72t86.5 -107.5t30.5 -132.5h-185q0 35 -18 68.5t-50 59.5t-77.5 42t-102.5 16q-59 0 -103.5 -13 t-74 -35t-44.5 -51t-15 -60q0 -32 12 -57t41.5 -45t79 -36t125.5 -31q100 -21 179 -48.5t133 -66t82.5 -89.5t28.5 -118q0 -72 -32.5 -131t-90.5 -101t-139 -65t-177 -23q-110 0 -196 29.5t-145.5 78t-91 112.5t-31.5 133h185q4 -57 30.5 -96t66 -63t87.5 -34t95 -10 q117 0 185 43t69 114zM726 1502h224l-268 -266h-140z" />
<glyph unicode="&#x15c;" d="M936 368q0 67 -30.5 113t-78.5 77.5t-105.5 52.5t-110.5 38q-77 25 -156.5 60t-145 86t-107 120.5t-41.5 163.5t41.5 168t108.5 125t152 77.5t171 26.5q95 0 183 -31.5t156 -88.5t109 -138t43 -181h-190q-8 63 -31 114.5t-61 88.5t-90.5 57.5t-118.5 20.5 q-53 0 -103.5 -15t-90 -45t-63 -74t-23.5 -102q1 -63 32 -106.5t78.5 -73.5t103 -50t104.5 -35q54 -17 109 -38.5t106 -49.5t95 -63t77 -79.5t51.5 -98t18.5 -118.5q0 -98 -43.5 -171t-112.5 -121.5t-156 -73t-174 -24.5q-97 0 -190 30t-166.5 86.5t-119.5 138t-49 185.5 h189q9 -68 37 -120.5t72 -89t101.5 -55t125.5 -18.5q54 0 106.5 13.5t93.5 42t67 72t26 103.5zM930 1645v-25h-154l-150 151l-149 -151h-152v26l245 239h112z" />
<glyph unicode="&#x15d;" d="M893 287q0 33 -13 59.5t-44 48.5t-82 40.5t-127 33.5q-93 19 -169.5 46t-131 64.5t-84.5 88t-30 117.5q0 66 31 123.5t87 100.5t133.5 68t170.5 25q100 0 180 -26t136 -72t86.5 -107.5t30.5 -132.5h-185q0 35 -18 68.5t-50 59.5t-77.5 42t-102.5 16q-59 0 -103.5 -13 t-74 -35t-44.5 -51t-15 -60q0 -32 12 -57t41.5 -45t79 -36t125.5 -31q100 -21 179 -48.5t133 -66t82.5 -89.5t28.5 -118q0 -72 -32.5 -131t-90.5 -101t-139 -65t-177 -23q-110 0 -196 29.5t-145.5 78t-91 112.5t-31.5 133h185q4 -57 30.5 -96t66 -63t87.5 -34t95 -10 q117 0 185 43t69 114zM932 1302v-25h-154l-150 151l-149 -151h-152v26l245 239h112z" />
<glyph unicode="&#x15e;" d="M936 368q0 67 -30.5 113t-78.5 77.5t-105.5 52.5t-110.5 38q-77 25 -156.5 60t-145 86t-107 120.5t-41.5 163.5t41.5 168t108.5 125t152 77.5t171 26.5q95 0 183 -31.5t156 -88.5t109 -138t43 -181h-190q-8 63 -31 114.5t-61 88.5t-90.5 57.5t-118.5 20.5 q-53 0 -103.5 -15t-90 -45t-63 -74t-23.5 -102q1 -63 32 -106.5t78.5 -73.5t103 -50t104.5 -35q54 -17 109 -38.5t106 -49.5t95 -63t77 -79.5t51.5 -98t18.5 -118.5q0 -98 -43.5 -171t-112.5 -121.5t-156 -73t-174 -24.5q-97 0 -190 30t-166.5 86.5t-119.5 138t-49 185.5 h189q9 -68 37 -120.5t72 -89t101.5 -55t125.5 -18.5q54 0 106.5 13.5t93.5 42t67 72t26 103.5zM711 -9l-12 -52q29 -5 56.5 -17t49 -32t34.5 -50.5t13 -73.5q0 -97 -79 -153t-224 -57l-7 107q34 0 64 5.5t52.5 17.5t36 30.5t13.5 45.5q0 25 -10 42t-30.5 27.5t-50.5 16.5 t-70 9l31 134h133z" />
<glyph unicode="&#x15f;" d="M893 287q0 33 -13 59.5t-44 48.5t-82 40.5t-127 33.5q-93 19 -169.5 46t-131 64.5t-84.5 88t-30 117.5q0 66 31 123.5t87 100.5t133.5 68t170.5 25q100 0 180 -26t136 -72t86.5 -107.5t30.5 -132.5h-185q0 35 -18 68.5t-50 59.5t-77.5 42t-102.5 16q-59 0 -103.5 -13 t-74 -35t-44.5 -51t-15 -60q0 -32 12 -57t41.5 -45t79 -36t125.5 -31q100 -21 179 -48.5t133 -66t82.5 -89.5t28.5 -118q0 -72 -32.5 -131t-90.5 -101t-139 -65t-177 -23q-110 0 -196 29.5t-145.5 78t-91 112.5t-31.5 133h185q4 -57 30.5 -96t66 -63t87.5 -34t95 -10 q117 0 185 43t69 114zM698 -8l-12 -52q29 -5 56.5 -17t49 -32t34.5 -50.5t13 -73.5q0 -97 -79 -153t-224 -57l-7 107q34 0 64 5.5t52.5 17.5t36 30.5t13.5 45.5q0 25 -10 42t-30.5 27.5t-50.5 16.5t-70 9l31 134h133z" />
<glyph unicode="&#x160;" d="M936 368q0 67 -30.5 113t-78.5 77.5t-105.5 52.5t-110.5 38q-77 25 -156.5 60t-145 86t-107 120.5t-41.5 163.5t41.5 168t108.5 125t152 77.5t171 26.5q95 0 183 -31.5t156 -88.5t109 -138t43 -181h-190q-8 63 -31 114.5t-61 88.5t-90.5 57.5t-118.5 20.5 q-53 0 -103.5 -15t-90 -45t-63 -74t-23.5 -102q1 -63 32 -106.5t78.5 -73.5t103 -50t104.5 -35q54 -17 109 -38.5t106 -49.5t95 -63t77 -79.5t51.5 -98t18.5 -118.5q0 -98 -43.5 -171t-112.5 -121.5t-156 -73t-174 -24.5q-97 0 -190 30t-166.5 86.5t-119.5 138t-49 185.5 h189q9 -68 37 -120.5t72 -89t101.5 -55t125.5 -18.5q54 0 106.5 13.5t93.5 42t67 72t26 103.5zM625 1734l151 152h160v-18l-254 -248h-114l-251 245v21h157z" />
<glyph unicode="&#x161;" d="M893 287q0 33 -13 59.5t-44 48.5t-82 40.5t-127 33.5q-93 19 -169.5 46t-131 64.5t-84.5 88t-30 117.5q0 66 31 123.5t87 100.5t133.5 68t170.5 25q100 0 180 -26t136 -72t86.5 -107.5t30.5 -132.5h-185q0 35 -18 68.5t-50 59.5t-77.5 42t-102.5 16q-59 0 -103.5 -13 t-74 -35t-44.5 -51t-15 -60q0 -32 12 -57t41.5 -45t79 -36t125.5 -31q100 -21 179 -48.5t133 -66t82.5 -89.5t28.5 -118q0 -72 -32.5 -131t-90.5 -101t-139 -65t-177 -23q-110 0 -196 29.5t-145.5 78t-91 112.5t-31.5 133h185q4 -57 30.5 -96t66 -63t87.5 -34t95 -10 q117 0 185 43t69 114zM627 1391l151 152h160v-18l-254 -248h-114l-251 245v21h157z" />
<glyph unicode="&#x162;" d="M1156 1298h-450v-1298h-180v1298h-450v158h1080v-158zM693 0l-12 -52q29 -5 56.5 -17t49 -32t34.5 -50.5t13 -73.5q0 -97 -79 -153t-224 -57l-7 107q34 0 64 5.5t52.5 17.5t36 30.5t13.5 45.5q0 25 -10 42t-30.5 27.5t-50.5 16.5t-70 9l31 134h133z" />
<glyph unicode="&#x163;" d="M612 1344v-262h412v-143h-412v-588q0 -63 16 -104t44 -65.5t64.5 -34.5t77.5 -10q30 0 62 3.5t62.5 8.5t57 10.5t43.5 9.5l26 -131q-23 -14 -56 -24.5t-72 -18t-82.5 -11.5t-86.5 -4q-72 0 -134.5 20.5t-108.5 65t-72.5 115t-26.5 170.5v588h-284v143h284v262h186zM791 0 l-12 -52q29 -5 56.5 -17t49 -32t34.5 -50.5t13 -73.5q0 -97 -79 -153t-224 -57l-7 107q34 0 64 5.5t52.5 17.5t36 30.5t13.5 45.5q0 25 -10 42t-30.5 27.5t-50.5 16.5t-70 9l31 134h133z" />
<glyph unicode="&#x164;" d="M1156 1298h-450v-1298h-180v1298h-450v158h1080v-158zM625 1701l151 152h160v-18l-254 -248h-114l-251 245v21h157z" />
<glyph unicode="&#x165;" horiz-adv-x="1269" d="M612 1344v-262h412v-143h-412v-588q0 -63 16 -104t44 -65.5t64.5 -34.5t77.5 -10q30 0 62 3.5t62.5 8.5t57 10.5t43.5 9.5l26 -131q-23 -14 -56 -24.5t-72 -18t-82.5 -11.5t-86.5 -4q-72 0 -134.5 20.5t-108.5 65t-72.5 115t-26.5 170.5v588h-284v143h284v262h186z M1148 1568q0 -47 -11.5 -99t-34 -102.5t-54.5 -96.5t-74 -82l-101 72q47 71 70.5 145t23.5 160v150h181v-147z" />
<glyph unicode="&#x166;" d="M941 823h-235v-823h-180v823h-222v151h222v324h-450v158h1080v-158h-450v-324h235v-151z" />
<glyph unicode="&#x167;" d="M612 1344v-262h412v-143h-412v-186h234v-151h-234v-251q0 -63 16 -104t44 -65.5t64.5 -34.5t77.5 -10q30 0 62 3.5t62.5 8.5t57 10.5t43.5 9.5l26 -131q-23 -14 -56 -24.5t-72 -18t-82.5 -11.5t-86.5 -4q-72 0 -134.5 20.5t-108.5 65t-72.5 115t-26.5 170.5v251h-217v151 h217v186h-284v143h284v262h186z" />
<glyph unicode="&#x168;" d="M1088 1456l2 -986q-2 -102 -37 -191t-98 -155.5t-150 -105t-191 -38.5q-106 0 -193 38t-149 104.5t-97 156t-36 191.5l2 986h176l4 -986q1 -65 20.5 -125t56 -106t91 -74t125.5 -28t125 27.5t90.5 74t55.5 106.5t21 125l3 986h179zM1003 1832q0 -45 -15.5 -86 t-42.5 -71.5t-65 -48.5t-83 -18q-33 0 -59 7t-47.5 17.5t-40.5 23t-38.5 23t-41.5 17.5t-49 7q-44 0 -72.5 -32.5t-29.5 -78.5l-104 24q0 45 15.5 86.5t42.5 73t64.5 50.5t83.5 19q42 0 75.5 -15t65 -32.5t64 -32.5t71.5 -15q21 0 40 9t32.5 24t22 35.5t8.5 43.5z" />
<glyph unicode="&#x169;" d="M876 149q-54 -80 -135 -124.5t-187 -44.5q-85 0 -154 26.5t-118 82.5t-75.5 142.5t-26.5 207.5v643h185v-645q0 -88 14 -146t42 -92.5t68.5 -48.5t93.5 -14q113 0 182.5 46t103.5 124v776h186v-1082h-168zM957 1502q0 -45 -15.5 -86t-42.5 -71.5t-65 -48.5t-83 -18 q-33 0 -59 7t-47.5 17.5t-40.5 23t-38.5 23t-41.5 17.5t-49 7q-44 0 -72.5 -32.5t-29.5 -78.5l-104 24q0 45 15.5 86.5t42.5 73t64.5 50.5t83.5 19q42 0 75.5 -15t65 -32.5t64 -32.5t71.5 -15q21 0 40 9t32.5 24t22 35.5t8.5 43.5z" />
<glyph unicode="&#x16a;" d="M1088 1456l2 -986q-2 -102 -37 -191t-98 -155.5t-150 -105t-191 -38.5q-106 0 -193 38t-149 104.5t-97 156t-36 191.5l2 986h176l4 -986q1 -65 20.5 -125t56 -106t91 -74t125.5 -28t125 27.5t90.5 74t55.5 106.5t21 125l3 986h179zM1020 1631h-714v143h714v-143z" />
<glyph unicode="&#x16b;" d="M876 149q-54 -80 -135 -124.5t-187 -44.5q-85 0 -154 26.5t-118 82.5t-75.5 142.5t-26.5 207.5v643h185v-645q0 -88 14 -146t42 -92.5t68.5 -48.5t93.5 -14q113 0 182.5 46t103.5 124v776h186v-1082h-168zM974 1302h-714v143h714v-143z" />
<glyph unicode="&#x16c;" d="M1088 1456l2 -986q-2 -102 -37 -191t-98 -155.5t-150 -105t-191 -38.5q-106 0 -193 38t-149 104.5t-97 156t-36 191.5l2 986h176l4 -986q1 -65 20.5 -125t56 -106t91 -74t125.5 -28t125 27.5t90.5 74t55.5 106.5t21 125l3 986h179zM958 1854q0 -59 -21 -108.5t-60 -84.5 t-94 -54.5t-123 -19.5q-69 0 -124 19.5t-94 54.5t-60.5 84.5t-21.5 108.5h150q0 -30 9 -57.5t27 -47.5t46 -32t68 -12q39 0 66.5 12t45.5 32t27 47.5t9 57.5h150z" />
<glyph unicode="&#x16d;" d="M876 149q-54 -80 -135 -124.5t-187 -44.5q-85 0 -154 26.5t-118 82.5t-75.5 142.5t-26.5 207.5v643h185v-645q0 -88 14 -146t42 -92.5t68.5 -48.5t93.5 -14q113 0 182.5 46t103.5 124v776h186v-1082h-168zM913 1524q0 -59 -21 -108.5t-60 -84.5t-94 -54.5t-123 -19.5 q-69 0 -124 19.5t-94 54.5t-60.5 84.5t-21.5 108.5h150q0 -30 9 -57.5t27 -47.5t46 -32t68 -12q39 0 66.5 12t45.5 32t27 47.5t9 57.5h150z" />
<glyph unicode="&#x16e;" d="M1088 1456l2 -986q-2 -102 -37 -191t-98 -155.5t-150 -105t-191 -38.5q-106 0 -193 38t-149 104.5t-97 156t-36 191.5l2 986h176l4 -986q1 -65 20.5 -125t56 -106t91 -74t125.5 -28t125 27.5t90.5 74t55.5 106.5t21 125l3 986h179zM454 1720q0 43 16.5 79.5t44 63 t65 41.5t79.5 15t78.5 -15t64 -41.5t43.5 -63t16 -79.5t-16 -79t-43.5 -61.5t-64 -39.5t-78.5 -14t-79.5 14t-65 39.5t-44 61.5t-16.5 79zM553 1720q0 -22 8.5 -41t23 -33.5t33.5 -22.5t41 -8t40.5 8t32.5 22t22 33t8 42q0 48 -29.5 78.5t-73.5 30.5t-75 -30.5t-31 -78.5z " />
<glyph unicode="&#x16f;" d="M876 149q-54 -80 -135 -124.5t-187 -44.5q-85 0 -154 26.5t-118 82.5t-75.5 142.5t-26.5 207.5v643h185v-645q0 -88 14 -146t42 -92.5t68.5 -48.5t93.5 -14q113 0 182.5 46t103.5 124v776h186v-1082h-168zM409 1390q0 43 16.5 79.5t44 63t65 41.5t79.5 15t78.5 -15 t64 -41.5t43.5 -63t16 -79.5t-16 -79t-43.5 -61.5t-64 -39.5t-78.5 -14t-79.5 14t-65 39.5t-44 61.5t-16.5 79zM508 1390q0 -22 8.5 -41t23 -33.5t33.5 -22.5t41 -8t40.5 8t32.5 22t22 33t8 42q0 48 -29.5 78.5t-73.5 30.5t-75 -30.5t-31 -78.5z" />
<glyph unicode="&#x170;" d="M1088 1456l2 -986q-2 -102 -37 -191t-98 -155.5t-150 -105t-191 -38.5q-106 0 -193 38t-149 104.5t-97 156t-36 191.5l2 986h176l4 -986q1 -65 20.5 -125t56 -106t91 -74t125.5 -28t125 27.5t90.5 74t55.5 106.5t21 125l3 986h179zM936 1854h225l-305 -269h-169z M613 1854h207l-245 -269h-150z" />
<glyph unicode="&#x171;" d="M876 149q-54 -80 -135 -124.5t-187 -44.5q-85 0 -154 26.5t-118 82.5t-75.5 142.5t-26.5 207.5v643h185v-645q0 -88 14 -146t42 -92.5t68.5 -48.5t93.5 -14q113 0 182.5 46t103.5 124v776h186v-1082h-168zM890 1524h225l-305 -269h-169zM567 1524h207l-245 -269h-150z " />
<glyph unicode="&#x172;" d="M1088 1456l2 -986q-1 -74 -20.5 -142t-54.5 -126t-85 -103t-111 -74q-62 -40 -98 -89.5t-36 -107.5q0 -34 18 -54.5t60 -20.5q32 -1 58.5 8.5t42.5 17.5l31 -121q-28 -16 -70.5 -30t-107.5 -14q-41 0 -76 12t-61 36t-41 59.5t-15 82.5q0 45 20 90t58 87q-104 2 -188.5 41 t-145 105t-94.5 154t-35 189l2 986h176l4 -986q1 -65 20.5 -125t56 -106t91 -74t125.5 -28t125 27.5t90.5 74t55.5 106.5t21 125l3 986h179z" />
<glyph unicode="&#x173;" d="M1054 0q-78 -42 -125 -97.5t-47 -121.5q0 -34 18 -54.5t60 -20.5q32 -1 58.5 8.5t42.5 17.5l31 -121q-28 -16 -70.5 -30t-107.5 -14q-41 0 -76 12t-61 36t-41 59.5t-15 82.5q0 66 43.5 132t121.5 120l-10 140q-54 -80 -135 -124.5t-187 -44.5q-85 0 -154 26.5t-118 82.5 t-75.5 142.5t-26.5 207.5v643h185v-645q0 -88 14 -146t42 -92.5t68.5 -48.5t93.5 -14q113 0 182.5 46t103.5 124v776h186v-1082h-1z" />
<glyph unicode="&#x174;" d="M896 394l111 1062h175l-177 -1456h-189l-187 1097l-189 -1097h-190l-177 1456h176l111 -1062l187 1062h161zM925 1624v-25h-154l-150 151l-149 -151h-152v26l245 239h112z" />
<glyph unicode="&#x175;" d="M338 392l22 -155l27 155l173 690h119l172 -690l29 -170l27 170l120 690h164l-230 -1082h-146l-169 663l-28 168l-27 -168l-167 -663h-146l-230 1082h164zM924 1282v-25h-154l-150 151l-149 -151h-152v26l245 239h112z" />
<glyph unicode="&#x176;" d="M603 725l332 731h210l-453 -913l-3 -543h-172l-3 543l-453 913h211zM913 1623v-25h-154l-150 151l-149 -151h-152v26l245 239h112z" />
<glyph unicode="&#x177;" d="M572 384l48 -131l330 829h207l-549 -1249q-19 -42 -48.5 -89t-71.5 -87t-98 -67t-129 -27q-13 0 -29 1.5t-32 4t-30 5.5t-23 5l30 151q7 0 19 -1t25 -2t25 -1.5t19 -0.5q38 0 69.5 21t56 50t42 60t27.5 51l74 144l-466 1031h207zM937 1282v-25h-154l-150 151l-149 -151 h-152v26l245 239h112z" />
<glyph unicode="&#x178;" d="M603 725l332 731h210l-453 -913l-3 -543h-172l-3 543l-453 913h211zM283 1717q0 45 27.5 75.5t81.5 30.5t82 -30.5t28 -75.5t-28 -75t-82 -30t-81.5 30t-27.5 75zM713 1715q0 45 27.5 76t81.5 31t82 -31t28 -76q0 -44 -28 -74.5t-82 -30.5t-81.5 30.5t-27.5 74.5z" />
<glyph unicode="&#x179;" d="M325 157h754v-157h-963l-2 144l725 1154h-712v158h923l2 -141zM751 1812h224l-268 -266h-140z" />
<glyph unicode="&#x17a;" d="M396 151h689v-151h-925v136l646 793h-637v153h880v-131zM748 1482h224l-268 -266h-140z" />
<glyph unicode="&#x17b;" d="M325 157h754v-157h-963l-2 144l725 1154h-712v158h923l2 -141zM537 1693q0 48 29 80t86 32t86 -32t29 -80q0 -46 -29 -77.5t-86 -31.5t-86 31.5t-29 77.5z" />
<glyph unicode="&#x17c;" d="M396 151h689v-151h-925v136l646 793h-637v153h880v-131zM534 1363q0 48 29 80t86 32t86 -32t29 -80q0 -46 -29 -77.5t-86 -31.5t-86 31.5t-29 77.5z" />
<glyph unicode="&#x17d;" d="M325 157h754v-157h-963l-2 144l725 1154h-712v158h923l2 -141zM652 1701l151 152h160v-18l-254 -248h-114l-251 245v21h157z" />
<glyph unicode="&#x17e;" d="M396 151h689v-151h-925v136l646 793h-637v153h880v-131zM649 1371l151 152h160v-18l-254 -248h-114l-251 245v21h157z" />
<glyph unicode="&#x17f;" d="M456 0v1126q0 109 30.5 193.5t87 142t136.5 87.5t180 30q37 0 72.5 -6t72.5 -15l-23 -142q-18 5 -41 8t-52 3q-68 0 -119.5 -21t-86.5 -60t-53 -95t-18 -125v-1126h-186z" />
<glyph unicode="&#x192;" d="M895 939h-212v-991q0 -93 -25 -165t-71.5 -120.5t-114 -74t-152.5 -25.5q-41 0 -81 8t-79 28l14 148q11 -8 31.5 -13.5t42.5 -10t41.5 -6.5t30.5 -2q85 0 131 62t47 171v991h-177v143h177v99q0 96 29 170.5t83.5 125t131.5 76.5t173 26q47 0 91.5 -11t91.5 -28l-23 -147 q-26 13 -61.5 21t-75.5 8q-130 -1 -192 -62.5t-63 -178.5v-99h212v-143z" />
<glyph unicode="&#x1a0;" d="M1114 644q-1 -78 -13.5 -157.5t-38.5 -153.5t-66.5 -138t-96.5 -112t-128.5 -75.5t-162.5 -27.5t-162.5 27.5t-128.5 75.5t-97 112.5t-67.5 138.5t-39.5 153t-14 157v166q1 78 13.5 157.5t39 153.5t67 138.5t96.5 113t128.5 76t162.5 27.5q113 0 197.5 -42t145.5 -113 q54 18 79 72t26 137h167q1 -127 -49 -211t-144 -119q44 -88 64 -189t22 -201v-166zM931 812q-1 52 -7 108.5t-20.5 112t-38.5 106t-60 89t-85 61t-114 22.5q-64 0 -113 -23t-85 -61.5t-60 -89t-38.5 -106t-21 -112t-7.5 -107.5v-168q1 -51 7.5 -108t21.5 -112.5t39 -106.5 t60 -89.5t85 -61.5t114 -23t114.5 23t85 61.5t59 89t38 106t20 112.5t6.5 109v168z" />
<glyph unicode="&#x1a1;" d="M119 551q0 117 34 217.5t97.5 174.5t154.5 116.5t205 42.5q96 0 175 -29.5t140 -82.5q54 17 79.5 69t25.5 135h168q-1 -121 -46.5 -202t-131.5 -117q41 -68 62 -150t21 -174v-22q0 -117 -34 -217t-97.5 -174t-154.5 -116t-205 -42q-115 0 -206.5 42t-155 116t-97.5 174 t-34 217v22zM304 529q0 -80 19 -152.5t57.5 -127.5t96.5 -87t135 -32q76 0 133.5 32t96 87t57.5 127.5t19 152.5v22q0 79 -19.5 151.5t-58 127.5t-96 87.5t-134.5 32.5t-134 -32.5t-95.5 -87.5t-57.5 -127.5t-19 -151.5v-22z" />
<glyph unicode="&#x1af;" d="M1088 1456v-184q45 6 75 23t48 46.5t25.5 72t7.5 98.5h167q0 -180 -78 -272.5t-244 -103.5l1 -666q-2 -102 -37 -191t-98 -155.5t-150 -105t-191 -38.5q-106 0 -193 38t-149 104.5t-97 156t-36 191.5l2 986h176l4 -986q1 -65 20.5 -125t56 -106t91 -74t125.5 -28 t125 27.5t90.5 74t55.5 106.5t21 125l3 986h179z" />
<glyph unicode="&#x1b0;" d="M1343 1171q-1 -170 -71 -260t-217 -109v-802h-168l-11 149q-54 -80 -135 -124.5t-187 -44.5q-85 0 -154 26.5t-118 82.5t-75.5 142.5t-26.5 207.5v643h185v-645q0 -88 14 -146t42 -92.5t68.5 -48.5t93.5 -14q113 0 182.5 46t103.5 124v776h186v-141q68 18 94 73.5 t26 156.5h168z" />
<glyph unicode="&#x1f0;" d="M260 1082h550v-1089q0 -104 -28.5 -184t-83 -134.5t-133 -83t-178.5 -28.5q-57 0 -106.5 3.5t-104.5 13.5l13 152q17 -3 42.5 -5.5t52.5 -4t51.5 -2t38.5 -0.5q52 0 97.5 13.5t79.5 45.5t53.5 84.5t19.5 129.5v928h-364v161zM708 1361l151 152h160v-18l-254 -248h-114 l-251 245v21h157z" />
<glyph unicode="&#x1fa;" d="M869 377h-486l-117 -377h-185l470 1456h155l462 -1456h-184zM433 538h387l-192 632zM734 2072h198l-220 -184h-124zM461 1673q0 36 14 67t37.5 53t54.5 34.5t66 12.5q34 0 65 -12.5t53.5 -34.5t36 -53t13.5 -67t-13.5 -66t-36 -51.5t-53.5 -33.5t-65 -12q-35 0 -66 12 t-54.5 33.5t-37.5 51.5t-14 66zM546 1673q1 -35 26 -60t61 -25q35 0 59 25t25 60q0 38 -24.5 63t-59.5 25q-36 0 -61 -25t-26 -63z" />
<glyph unicode="&#x1fb;" d="M885 0q-11 21 -17.5 52.5t-9.5 65.5q-28 -28 -62.5 -53t-76 -44t-88.5 -30t-100 -11q-86 0 -155.5 25t-118 67.5t-75 101t-26.5 126.5q0 89 35.5 156t100.5 111.5t156.5 66.5t204.5 22h202v85q0 49 -18 88t-51 66.5t-80.5 42.5t-106.5 15q-55 0 -98.5 -14t-73.5 -37 t-46.5 -54.5t-16.5 -65.5h-186q1 59 30.5 116t85 102.5t135 73.5t180.5 28q92 0 171 -22.5t136.5 -68t90.5 -113.5t33 -159v-503q0 -54 10 -114.5t28 -105.5v-16h-193zM558 141q54 0 101 14t85.5 37t66.5 52.5t44 61.5v219h-172q-162 0 -252 -48t-90 -151q0 -40 13.5 -74 t40.5 -58.5t68 -38.5t95 -14zM730 1750h198l-220 -184h-124zM457 1351q0 36 14 67t37.5 53t54.5 34.5t66 12.5q34 0 65 -12.5t53.5 -34.5t36 -53t13.5 -67t-13.5 -66t-36 -51.5t-53.5 -33.5t-65 -12q-35 0 -66 12t-54.5 33.5t-37.5 51.5t-14 66zM542 1351q1 -35 26 -60 t61 -25q35 0 59 25t25 60q0 38 -24.5 63t-59.5 25q-36 0 -61 -25t-26 -63z" />
<glyph unicode="&#x1fc;" d="M1195 0h-531l-1 353h-310l-123 -353h-198l560 1456h580v-152h-337l2 -471h302v-151h-302l1 -531h357v-151zM414 527h249l-2 706zM809 1824h224l-268 -266h-140z" />
<glyph unicode="&#x1fd;" d="M896 -20q-103 0 -177 37.5t-120 108.5q-19 -29 -44.5 -55.5t-58.5 -46.5t-73 -32t-88 -12q-71 0 -125 22t-91 61.5t-56.5 96t-19.5 125.5q0 166 104 258t301 92h63v148q0 76 -31 121.5t-99 45.5q-63 0 -102 -41.5t-39 -116.5l-179 8q0 69 22.5 124.5t64 95t100.5 61 t131 21.5q83 0 145.5 -27t101.5 -80q43 51 102.5 79t133.5 28q81 0 142.5 -26.5t103.5 -75t63.5 -117t21.5 -152.5v-234h-505v-86q0 -66 13.5 -118t43 -88t75.5 -55.5t112 -19.5q38 0 67.5 7t53 17.5t42.5 22.5t35 23l46 -136q-13 -10 -36 -24.5t-57.5 -27.5t-81 -22.5 t-105.5 -9.5zM862 950q-45 0 -77.5 -19.5t-53.5 -52.5t-31.5 -77t-11.5 -92v-69h329v128q0 35 -10 67.5t-30 58t-49 41t-66 15.5zM371 130q37 0 75 21.5t66 50.5l-1 293h-61q-53 0 -95 -17.5t-71 -47t-44.5 -68t-15.5 -81.5q0 -31 9.5 -58.5t28 -48t46 -32.5t63.5 -12z M746 1503h224l-268 -266h-140z" />
<glyph unicode="&#x1fe;" d="M1113 644q-1 -78 -13.5 -157.5t-38.5 -153.5t-66.5 -138t-96.5 -112t-128.5 -75.5t-162.5 -27.5q-91 0 -162 27.5t-128 75.5l-104 -176h-142l160 270q-34 49 -59 105t-41.5 116t-24.5 122.5t-8 123.5v166q1 78 13.5 157.5t39 153.5t67 138.5t96.5 113t128.5 76 t162.5 27.5q102 0 180.5 -34.5t137.5 -93.5l99 168h142l-161 -272q28 -47 48.5 -99.5t34 -108t20 -113t7.5 -113.5v-166zM280 644q1 -69 12.5 -146.5t40.5 -147.5l498 843q-37 53 -92.5 85.5t-133.5 32.5q-64 0 -113 -23t-85 -61.5t-60 -89t-38.5 -106t-21 -112t-7.5 -107.5 v-168zM930 812q-1 58 -8.5 122.5t-26.5 126.5l-491 -830q37 -41 87 -64.5t116 -23.5q65 0 114.5 23t85 61.5t59 89t38 106t20 112.5t6.5 109v168zM717 1886h224l-268 -266h-140z" />
<glyph unicode="&#x1ff;" d="M122 551q0 117 34 217.5t97.5 174.5t154.5 116.5t205 42.5q57 0 107.5 -10.5t95.5 -30.5l73 148h123l-101 -205q94 -75 144.5 -192t50.5 -261v-22q0 -117 -34 -217t-97.5 -174t-154.5 -116t-205 -42q-54 0 -101.5 9.5t-90.5 26.5l-74 -151h-123l101 205q-99 73 -152 192 t-53 267v22zM307 529q0 -91 24 -169.5t72 -135.5l342 694q-29 15 -61.5 23.5t-70.5 8.5q-77 0 -134 -32.5t-95.5 -87.5t-57.5 -127.5t-19 -151.5v-22zM921 551q0 85 -22 161t-67 133l-340 -689q55 -26 123 -26q76 0 133.5 32t96 87t57.5 127.5t19 152.5v22zM674 1501h224 l-268 -266h-140z" />
<glyph unicode="&#x218;" d="M936 368q0 67 -30.5 113t-78.5 77.5t-105.5 52.5t-110.5 38q-77 25 -156.5 60t-145 86t-107 120.5t-41.5 163.5t41.5 168t108.5 125t152 77.5t171 26.5q95 0 183 -31.5t156 -88.5t109 -138t43 -181h-190q-8 63 -31 114.5t-61 88.5t-90.5 57.5t-118.5 20.5 q-53 0 -103.5 -15t-90 -45t-63 -74t-23.5 -102q1 -63 32 -106.5t78.5 -73.5t103 -50t104.5 -35q54 -17 109 -38.5t106 -49.5t95 -63t77 -79.5t51.5 -98t18.5 -118.5q0 -98 -43.5 -171t-112.5 -121.5t-156 -73t-174 -24.5q-97 0 -190 30t-166.5 86.5t-119.5 138t-49 185.5 h189q9 -68 37 -120.5t72 -89t101.5 -55t125.5 -18.5q54 0 106.5 13.5t93.5 42t67 72t26 103.5zM733 -137q0 -42 -8.5 -88t-26.5 -91t-45.5 -86.5t-64.5 -73.5l-105 72q37 62 55.5 125.5t18.5 138.5v73h176v-70z" />
<glyph unicode="&#x219;" d="M893 287q0 33 -13 59.5t-44 48.5t-82 40.5t-127 33.5q-93 19 -169.5 46t-131 64.5t-84.5 88t-30 117.5q0 66 31 123.5t87 100.5t133.5 68t170.5 25q100 0 180 -26t136 -72t86.5 -107.5t30.5 -132.5h-185q0 35 -18 68.5t-50 59.5t-77.5 42t-102.5 16q-59 0 -103.5 -13 t-74 -35t-44.5 -51t-15 -60q0 -32 12 -57t41.5 -45t79 -36t125.5 -31q100 -21 179 -48.5t133 -66t82.5 -89.5t28.5 -118q0 -72 -32.5 -131t-90.5 -101t-139 -65t-177 -23q-110 0 -196 29.5t-145.5 78t-91 112.5t-31.5 133h185q4 -57 30.5 -96t66 -63t87.5 -34t95 -10 q117 0 185 43t69 114zM720 -136q0 -42 -8.5 -88t-26.5 -91t-45.5 -86.5t-64.5 -73.5l-105 72q37 62 55.5 125.5t18.5 138.5v73h176v-70z" />
<glyph unicode="&#x21a;" d="M1156 1298h-450v-1298h-180v1298h-450v158h1080v-158zM715 -127q0 -42 -8.5 -88t-26.5 -91t-45.5 -86.5t-64.5 -73.5l-105 72q37 62 55.5 125.5t18.5 138.5v73h176v-70z" />
<glyph unicode="&#x21b;" d="M612 1344v-262h412v-143h-412v-588q0 -63 16 -104t44 -65.5t64.5 -34.5t77.5 -10q30 0 62 3.5t62.5 8.5t57 10.5t43.5 9.5l26 -131q-23 -14 -56 -24.5t-72 -18t-82.5 -11.5t-86.5 -4q-72 0 -134.5 20.5t-108.5 65t-72.5 115t-26.5 170.5v588h-284v143h284v262h186z M813 -127q0 -42 -8.5 -88t-26.5 -91t-45.5 -86.5t-64.5 -73.5l-105 72q37 62 55.5 125.5t18.5 138.5v73h176v-70z" />
<glyph unicode="&#x237;" d="M260 1082h550v-1089q0 -104 -28.5 -184t-83 -134.5t-133 -83t-178.5 -28.5q-57 0 -106.5 3.5t-104.5 13.5l13 152q17 -3 42.5 -5.5t52.5 -4t51.5 -2t38.5 -0.5q52 0 97.5 13.5t79.5 45.5t53.5 84.5t19.5 129.5v928h-364v161z" />
<glyph unicode="&#x259;" d="M609 1103q118 0 212.5 -40.5t160.5 -113t101.5 -171.5t35.5 -216v-44q0 -117 -39 -216t-105.5 -170.5t-154 -111.5t-183.5 -39q-117 0 -203.5 36t-143.5 100t-85 152.5t-28 193.5v121h756q-3 76 -25 143t-62.5 117t-99.5 79t-137 29q-113 0 -193.5 -31t-134.5 -77 l-73 125q27 25 64.5 49t87 43t112 30.5t137.5 11.5zM637 132q57 0 105.5 23t86 63.5t62.5 95.5t36 119h-565v-26q0 -54 16.5 -104t50 -88t85.5 -60.5t123 -22.5z" />
<glyph unicode="&#x2bc;" d="M736 1411q0 -47 -11.5 -99t-34 -102.5t-54.5 -96.5t-74 -82l-101 72q47 71 70.5 145t23.5 160v150h181v-147z" />
<glyph unicode="&#x2c6;" d="M798 1277v-25h-154l-150 151l-149 -151h-152v26l245 239h112z" />
<glyph unicode="&#x2c7;" d="M612 1365l151 152h160v-18l-254 -248h-114l-251 245v21h157z" />
<glyph unicode="&#x2d8;" d="M913 1458q0 -59 -21 -108.5t-60 -84.5t-94 -54.5t-123 -19.5q-69 0 -124 19.5t-94 54.5t-60.5 84.5t-21.5 108.5h150q0 -30 9 -57.5t27 -47.5t46 -32t68 -12q39 0 66.5 12t45.5 32t27 47.5t9 57.5h150z" />
<glyph unicode="&#x2d9;" d="M498 1358q0 48 29 80t86 32t86 -32t29 -80q0 -46 -29 -77.5t-86 -31.5t-86 31.5t-29 77.5z" />
<glyph unicode="&#x2da;" d="M410 1312q0 43 16.5 79.5t44 63t65 41.5t79.5 15t78.5 -15t64 -41.5t43.5 -63t16 -79.5t-16 -79t-43.5 -61.5t-64 -39.5t-78.5 -14t-79.5 14t-65 39.5t-44 61.5t-16.5 79zM509 1312q0 -22 8.5 -41t23 -33.5t33.5 -22.5t41 -8t40.5 8t32.5 22t22 33t8 42q0 48 -29.5 78.5 t-73.5 30.5t-75 -30.5t-31 -78.5z" />
<glyph unicode="&#x2db;" d="M731 0q-78 -42 -125 -97.5t-47 -121.5q0 -34 18 -54.5t60 -20.5q32 -1 58.5 8.5t42.5 17.5l31 -121q-28 -16 -70.5 -30t-107.5 -14q-41 0 -76 12t-61 36t-41 59.5t-15 82.5q0 41 17.5 82.5t49.5 80.5t77.5 74t101.5 62z" />
<glyph unicode="&#x2dc;" d="M826 1491q0 -45 -15.5 -86t-42.5 -71.5t-65 -48.5t-83 -18q-33 0 -59 7t-47.5 17.5t-40.5 23t-38.5 23t-41.5 17.5t-49 7q-44 0 -72.5 -32.5t-29.5 -78.5l-104 24q0 45 15.5 86.5t42.5 73t64.5 50.5t83.5 19q42 0 75.5 -15t65 -32.5t64 -32.5t71.5 -15q21 0 40 9t32.5 24 t22 35.5t8.5 43.5z" />
<glyph unicode="&#x2dd;" d="M757 1519h225l-305 -269h-169zM434 1519h207l-245 -269h-150z" />
<glyph unicode="&#x2f3;" d="M429 -233q0 32 12 59.5t33 47t49 30.5t60 11q31 0 58 -11t47.5 -30.5t32.5 -47t12 -59.5t-12 -59t-32.5 -46t-47.5 -29.5t-58 -10.5q-32 0 -60 10.5t-49 29.5t-33 46t-12 59zM515 -233q1 -27 20.5 -46t47.5 -19q26 0 45 18.5t19 46.5q0 29 -19 48.5t-45 19.5 q-28 0 -47.5 -19.5t-20.5 -48.5z" />
<glyph unicode="&#x300;" horiz-adv-x="1106" d="M-517 1212h-126l-179 346h178z" />
<glyph unicode="&#x301;" horiz-adv-x="1106" d="M-534 1559h172l-186 -347h-116z" />
<glyph unicode="&#x303;" horiz-adv-x="1106" d="M-200 1491q0 -45 -15.5 -86t-42.5 -71.5t-65 -48.5t-83 -18q-33 0 -59 7t-47.5 17.5t-40.5 23t-38.5 23t-41.5 17.5t-49 7q-44 0 -72.5 -32.5t-29.5 -78.5l-104 24q0 45 15.5 86.5t42.5 73t64.5 50.5t83.5 19q42 0 75.5 -15t65 -32.5t64 -32.5t71.5 -15q21 0 40 9 t32.5 24t22 35.5t8.5 43.5z" />
<glyph unicode="&#x309;" horiz-adv-x="1106" d="M-657 1241l-1 153q71 5 108 19t37 55q0 22 -13.5 37t-36.5 24t-53 13t-63 4l7 106q144 0 223.5 -50t79.5 -138q0 -38 -13.5 -65t-35.5 -45t-50 -28t-56 -14l-1 -71h-132z" />
<glyph unicode="&#x30f;" horiz-adv-x="1106" d="M-544 1252h-169l-306 266h225zM-283 1252h-150l-246 266h207z" />
<glyph unicode="&#x323;" horiz-adv-x="1106" d="M-729 -235q0 48 29 80t86 32t86 -32t29 -80q0 -46 -29 -77.5t-86 -31.5t-86 31.5t-29 77.5z" />
<glyph unicode="&#x384;" d="M618 1658h195l-170 -387h-90z" />
<glyph unicode="&#x385;" d="M628 1727h205l-118 -264h-135zM275 1360q0 48 28.5 80t85.5 32t86 -32t29 -80q0 -46 -29 -78t-86 -32t-85.5 32t-28.5 78zM782 1360q0 48 28.5 80t85.5 32t86 -32t29 -80q0 -46 -29 -78t-86 -32t-85.5 32t-28.5 78z" />
<glyph unicode="&#x386;" d="M869 377h-486l-117 -377h-185l470 1456h155l462 -1456h-184zM433 538h387l-192 632zM298 1658h195l-170 -387h-90z" />
<glyph unicode="&#x387;" d="M560 729q0 48 29 80t86 32q56 0 85.5 -32t29.5 -80q0 -47 -29.5 -78.5t-85.5 -31.5q-57 0 -86 31.5t-29 78.5z" />
<glyph unicode="&#x388;" horiz-adv-x="1329" d="M1075 673h-608v-516h709v-157h-894v1456h885v-158h-700v-468h608v-157zM80 1658h195l-170 -387h-90z" />
<glyph unicode="&#x389;" horiz-adv-x="1329" d="M1187 0h-175v673h-597v-673h-174v1456h174v-626h597v626h175v-1456zM62 1660h195l-170 -387h-90z" />
<glyph unicode="&#x38a;" horiz-adv-x="1329" d="M274 1456h880v-161h-349v-1135h349v-160h-880v160h341v1135h-341v161zM45 1660h195l-170 -387h-90z" />
<glyph unicode="&#x38c;" horiz-adv-x="1249" d="M1141 644q-1 -78 -13.5 -157.5t-38.5 -153.5t-66.5 -138t-96.5 -112t-128.5 -75.5t-162.5 -27.5t-162.5 27.5t-128.5 75.5t-97 112.5t-67.5 138.5t-39.5 153t-14 157v166q1 78 13.5 157.5t39 153.5t67 138.5t96.5 113t128.5 76t162.5 27.5t163 -27.5t129 -75.5 t96.5 -112.5t67 -138.5t39 -154t13.5 -158v-166zM958 812q-1 52 -7 108.5t-20.5 112t-38.5 106t-60 89t-85 61t-114 22.5q-64 0 -113 -23t-85 -61.5t-60 -89t-38.5 -106t-21 -112t-7.5 -107.5v-168q1 -51 7.5 -108t21.5 -112.5t39 -106.5t60 -89.5t85 -61.5t114 -23 t114.5 23t85 61.5t59 89t38 106t20 112.5t6.5 109v168zM74 1658h195l-170 -387h-90z" />
<glyph unicode="&#x38e;" horiz-adv-x="1329" d="M703 725l332 731h210l-453 -913l-3 -543h-172l-3 543l-453 913h211zM-13 1658h195l-170 -387h-90z" />
<glyph unicode="&#x38f;" horiz-adv-x="1249" d="M700 193q128 29 196 173t68 393v81q0 117 -22.5 207.5t-65 152t-104.5 93.5t-140 32q-77 0 -138 -32t-103.5 -93.5t-65.5 -152t-23 -207.5v-81q1 -251 71.5 -394t199.5 -172v-193h-452v151h262q-62 47 -111.5 114.5t-84 148t-52.5 168.5t-18 177v79q0 139 36.5 256.5 t104 202t162.5 132t212 47.5t212.5 -47.5t163 -132t104.5 -202t37 -256.5v-79q0 -89 -18 -177.5t-51.5 -168.5t-82.5 -147.5t-111 -114.5h266v-151h-452v193zM70 1658h195l-170 -387h-90z" />
<glyph unicode="&#x390;" d="M184 1082h537l1 -760q0 -65 13.5 -102.5t37 -56t53.5 -23.5t63 -5q45 0 84 14t68 31l41 -130q-62 -44 -120 -57t-120 -13q-72 0 -128.5 17t-96 58t-60.5 108.5t-21 168.5v589h-352v161zM600 1658h205l-118 -264h-135zM247 1291q0 48 28.5 80t85.5 32t86 -32t29 -80 q0 -46 -29 -78t-86 -32t-85.5 32t-28.5 78zM754 1291q0 48 28.5 80t85.5 32t86 -32t29 -80q0 -46 -29 -78t-86 -32t-85.5 32t-28.5 78z" />
<glyph unicode="&#x391;" d="M869 377h-486l-117 -377h-185l470 1456h155l462 -1456h-184zM433 538h387l-192 632z" />
<glyph unicode="&#x392;" d="M172 0v1456h433q90 -1 176 -23.5t153 -69.5t107 -120t39 -175q-1 -57 -18.5 -104t-48 -84.5t-71.5 -65.5t-87 -48q58 -17 106.5 -48.5t83.5 -76t54.5 -100.5t19.5 -121q1 -102 -39 -180t-107 -130.5t-154.5 -80.5t-180.5 -29h-466zM358 681v-524h285q58 1 110 19.5 t92 51.5t63.5 81t23.5 109q1 62 -20.5 110t-59.5 81.5t-89 51.5t-110 20h-295zM358 835h258q52 1 102 16.5t89 45t63 72.5t24 100q0 61 -23.5 104t-63 70.5t-91 40.5t-105.5 14h-253v-463z" />
<glyph unicode="&#x393;" d="M1072 1304h-705v-1304h-186v1456h891v-152z" />
<glyph unicode="&#x395;" d="M975 673h-608v-516h709v-157h-894v1456h885v-158h-700v-468h608v-157z" />
<glyph unicode="&#x396;" d="M325 157h754v-157h-963l-2 144l725 1154h-712v158h923l2 -141z" />
<glyph unicode="&#x397;" d="M1087 0h-175v673h-597v-673h-174v1456h174v-626h597v626h175v-1456z" />
<glyph unicode="&#x398;" d="M845 660h-464v151h464v-151zM1121 644q-1 -78 -13.5 -157.5t-38.5 -153.5t-66.5 -138t-96.5 -112t-128.5 -75.5t-162.5 -27.5t-162.5 27.5t-128.5 75.5t-97 112.5t-67.5 138.5t-39.5 153t-14 157v166q1 78 13.5 157.5t39 153.5t67 138.5t96.5 113t128.5 76t162.5 27.5 t163 -27.5t129 -75.5t96.5 -112.5t67 -138.5t39 -154t13.5 -158v-166zM938 812q-1 52 -7 108.5t-20.5 112t-38.5 106t-60 89t-85 61t-114 22.5q-64 0 -113 -23t-85 -61.5t-60 -89t-38.5 -106t-21 -112t-7.5 -107.5v-168q1 -51 7.5 -108t21.5 -112.5t39 -106.5t60 -89.5 t85 -61.5t114 -23t114.5 23t85 61.5t59 89t38 106t20 112.5t6.5 109v168z" />
<glyph unicode="&#x399;" d="M174 1456h880v-161h-349v-1135h349v-160h-880v160h341v1135h-341v161z" />
<glyph unicode="&#x39a;" d="M523 676l-162 -184v-492h-189v1456h189v-711l141 176l427 535h225l-509 -637l543 -819h-225z" />
<glyph unicode="&#x39b;" d="M618 1180l-375 -1180h-189l484 1456h161l485 -1456h-189z" />
<glyph unicode="&#x39c;" d="M377 1456l237 -728l256 728h230v-1456h-180v581l15 608l-269 -784h-106l-247 763l15 -587v-581h-180v1456h229z" />
<glyph unicode="&#x39d;" d="M1086 0h-188l-565 1088l-3 -1088h-187v1456h188l565 -1086l3 1086h187v-1456z" />
<glyph unicode="&#x39e;" d="M145 151h934v-151h-934v151zM230 830h754v-152h-754v152zM147 1456h918v-152h-918v152z" />
<glyph unicode="&#x39f;" d="M1121 644q-1 -78 -13.5 -157.5t-38.5 -153.5t-66.5 -138t-96.5 -112t-128.5 -75.5t-162.5 -27.5t-162.5 27.5t-128.5 75.5t-97 112.5t-67.5 138.5t-39.5 153t-14 157v166q1 78 13.5 157.5t39 153.5t67 138.5t96.5 113t128.5 76t162.5 27.5t163 -27.5t129 -75.5 t96.5 -112.5t67 -138.5t39 -154t13.5 -158v-166zM938 812q-1 52 -7 108.5t-20.5 112t-38.5 106t-60 89t-85 61t-114 22.5q-64 0 -113 -23t-85 -61.5t-60 -89t-38.5 -106t-21 -112t-7.5 -107.5v-168q1 -51 7.5 -108t21.5 -112.5t39 -106.5t60 -89.5t85 -61.5t114 -23 t114.5 23t85 61.5t59 89t38 106t20 112.5t6.5 109v168z" />
<glyph unicode="&#x3a0;" d="M1066 0h-185v1304h-534v-1304h-185v1456h904v-1456z" />
<glyph unicode="&#x3a1;" d="M376 584v-584h-185v1456h472q98 -2 185.5 -31t153.5 -84t104.5 -136t38.5 -186t-38.5 -185.5t-104.5 -135.5t-153.5 -84t-185.5 -30h-287zM376 736h287q64 1 118 20.5t94 55.5t62.5 87.5t22.5 117.5t-22.5 119t-62 90t-94 57t-118.5 21h-287v-568z" />
<glyph unicode="&#x3a3;" d="M793 717l-452 -565h794v-152h-1023v144l485 585l-485 583v144h973v-152h-743l451 -562v-25z" />
<glyph unicode="&#x3a4;" d="M1156 1298h-450v-1298h-180v1298h-450v158h1080v-158z" />
<glyph unicode="&#x3a5;" d="M603 725l332 731h210l-453 -913l-3 -543h-172l-3 543l-453 913h211z" />
<glyph unicode="&#x3a6;" d="M707 1250q97 -8 179.5 -49t143 -110t95 -162t34.5 -204q0 -112 -34.5 -205.5t-95 -163t-143 -111.5t-179.5 -49v-196h-185v196q-98 7 -180.5 48t-143.5 110t-95 163t-34 206q0 111 34 205t95 163t143.5 110.5t180.5 48.5v206h185v-206zM252 723q0 -80 18 -146.5 t52.5 -115t84.5 -78t115 -35.5v750q-65 -7 -115 -36.5t-84.5 -78.5t-52.5 -115t-18 -145zM975 725q0 79 -18 144.5t-52.5 114t-84 78t-113.5 36.5v-750q64 7 113.5 36.5t84 78.5t52.5 115.5t18 146.5z" />
<glyph unicode="&#x3a7;" d="M625 885l314 571h218l-423 -722l433 -734h-216l-322 582l-323 -582h-219l434 734l-423 722h217z" />
<glyph unicode="&#x3a8;" d="M711 479q55 12 99.5 40t76 73t49 107.5t17.5 142.5v614h185v-614q0 -118 -31.5 -209.5t-87.5 -156.5t-135 -103t-173 -49v-324h-185v324q-95 11 -173 49t-134 103t-87 156.5t-31 209.5v614h185v-614q0 -80 17 -142t48.5 -107t76 -73t98.5 -40v976h185v-977z" />
<glyph unicode="&#x3aa;" d="M174 1456h880v-161h-349v-1135h349v-160h-880v160h341v1135h-341v161zM241 1718q0 45 27.5 75.5t81.5 30.5t82 -30.5t28 -75.5t-28 -75t-82 -30t-81.5 30t-27.5 75zM671 1716q0 45 27.5 76t81.5 31t82 -31t28 -76q0 -44 -28 -74.5t-82 -30.5t-81.5 30.5t-27.5 74.5z" />
<glyph unicode="&#x3ab;" d="M603 725l332 731h210l-453 -913l-3 -543h-172l-3 543l-453 913h211zM283 1717q0 45 27.5 75.5t81.5 30.5t82 -30.5t28 -75.5t-28 -75t-82 -30t-81.5 30t-27.5 75zM713 1715q0 45 27.5 76t81.5 31t82 -31t28 -76q0 -44 -28 -74.5t-82 -30.5t-81.5 30.5t-27.5 74.5z" />
<glyph unicode="&#x3ac;" d="M1007 1082v-805q0 -38 6 -63.5t16.5 -40.5t25 -21.5t32.5 -6.5q15 0 28.5 2t23.5 4l23 -138q-31 -21 -60.5 -27.5t-61.5 -6.5q-75 0 -124.5 33.5t-73.5 107.5q-54 -69 -131 -105t-180 -36q-98 0 -173 39.5t-126 109t-77 165t-26 207.5v21q0 125 26 231.5t77 184 t126.5 121.5t174.5 44q104 0 181.5 -38t131.5 -109l49 127h112zM314 500q0 -75 14 -142t45.5 -117.5t81.5 -80.5t121 -30q89 0 148.5 41t97.5 106v531q-19 31 -43 57t-54.5 45t-67 29.5t-79.5 10.5q-72 0 -122.5 -35t-82 -94.5t-45.5 -137t-14 -162.5v-21zM633 1662h195 l-170 -387h-90z" />
<glyph unicode="&#x3ad;" d="M618 478q-145 0 -219 -40.5t-74 -133.5q0 -37 20 -69t58.5 -55.5t95.5 -37t131 -13.5q66 0 122 15t96.5 41.5t63.5 61t23 73.5h185q-1 -59 -20.5 -107.5t-54 -86t-81.5 -65t-101 -46t-113.5 -27t-119.5 -8.5q-108 0 -198 21.5t-155.5 63t-101.5 101.5t-36 138 q0 95 56.5 158t162.5 94q-95 35 -147.5 95.5t-52.5 135.5q0 78 33 136.5t94.5 98t149 59.5t195.5 20q95 0 180.5 -22t150 -63.5t102.5 -101t39 -134.5h-185q0 37 -23.5 68.5t-62.5 54t-91 35.5t-110 13q-75 0 -129 -13t-89 -35.5t-51.5 -52.5t-16.5 -64q0 -37 15 -66.5 t48 -50.5t85 -32t126 -11h243v-148h-243zM638 1661h195l-170 -387h-90z" />
<glyph unicode="&#x3ae;" d="M331 1082l13 -160q55 84 140 131.5t197 48.5q90 0 161 -22t121 -71.5t77 -129t27 -194.5v-1100h-186v1096q0 144 -64 206.5t-191 62.5q-101 0 -169 -38.5t-107 -103.5v-808h-186v1082h167zM646 1662h195l-170 -387h-90z" />
<glyph unicode="&#x3af;" d="M184 1082h537l1 -760q0 -65 13.5 -102.5t37 -56t53.5 -23.5t63 -5q45 0 84 14t68 31l41 -130q-62 -44 -120 -57t-120 -13q-72 0 -128.5 17t-96 58t-60.5 108.5t-21 168.5v589h-352v161zM632 1642h195l-170 -387h-90z" />
<glyph unicode="&#x3b0;" d="M343 1082v-619q0 -89 19 -152t54 -103.5t84.5 -59t109.5 -18.5q77 0 132 38.5t90.5 100t52.5 138.5t17 155q-3 134 -37.5 264.5t-86.5 255.5h195q23 -48 43.5 -104.5t36.5 -121.5t25 -138.5t9 -155.5q0 -114 -26 -219.5t-82 -186t-145 -128.5t-215 -48q-110 0 -195.5 29 t-144.5 88.5t-90 151t-31 216.5v617h185zM564 1658h205l-118 -264h-135zM211 1291q0 48 28.5 80t85.5 32t86 -32t29 -80q0 -46 -29 -78t-86 -32t-85.5 32t-28.5 78zM718 1291q0 48 28.5 80t85.5 32t86 -32t29 -80q0 -46 -29 -78t-86 -32t-85.5 32t-28.5 78z" />
<glyph unicode="&#x3b1;" d="M1007 1082v-805q0 -38 6 -63.5t16.5 -40.5t25 -21.5t32.5 -6.5q15 0 28.5 2t23.5 4l23 -138q-31 -21 -60.5 -27.5t-61.5 -6.5q-75 0 -124.5 33.5t-73.5 107.5q-54 -69 -131 -105t-180 -36q-98 0 -173 39.5t-126 109t-77 165t-26 207.5v21q0 125 26 231.5t77 184 t126.5 121.5t174.5 44q104 0 181.5 -38t131.5 -109l49 127h112zM314 500q0 -75 14 -142t45.5 -117.5t81.5 -80.5t121 -30q89 0 148.5 41t97.5 106v531q-19 31 -43 57t-54.5 45t-67 29.5t-79.5 10.5q-72 0 -122.5 -35t-82 -94.5t-45.5 -137t-14 -162.5v-21z" />
<glyph unicode="&#x3b2;" d="M619 1476q97 0 176 -28.5t135 -81t86.5 -124.5t30.5 -159q0 -92 -49 -167.5t-137 -122.5q121 -44 187.5 -141t66.5 -228q0 -107 -34 -189.5t-95 -139.5t-144 -86.5t-181 -29.5q-81 0 -160 23t-141 73v-459h-186v1457q0 82 35.5 155.5t96 128.5t141 87t172.5 32zM615 858 q64 0 111 17t77 47t44.5 72t14.5 93q0 46 -16 89t-47 76t-76.5 53t-103.5 20q-55 0 -102.5 -19.5t-82 -53.5t-54.5 -80t-20 -99v-827q45 -53 117 -84.5t165 -31.5q67 0 120.5 21.5t90.5 60t57 92t20 116.5q0 53 -17 104t-50 91.5t-80.5 65.5t-108.5 25h-143v152h84z" />
<glyph unicode="&#x3b3;" d="M984 1082h190l-458 -1035v-463h-186v470l-459 1028h190l340 -784l24 -97l26 97z" />
<glyph unicode="&#x3b4;" d="M263 1269q0 69 27 124t76.5 93t119.5 58t156 20q80 0 159.5 -23.5t154.5 -61.5l-41 -130q-23 9 -54.5 20t-67.5 20.5t-75 16t-79 6.5q-42 0 -76.5 -10t-59.5 -28t-39 -43.5t-14 -56.5q0 -22 11.5 -45.5t38.5 -47.5t71.5 -48t111.5 -47q220 -73 331.5 -211t111.5 -345v-21 q0 -113 -34 -209.5t-98.5 -167.5t-157.5 -111.5t-211 -40.5q-120 0 -213.5 40.5t-158.5 111.5t-99 167.5t-34 209.5v21q0 87 27 163t73.5 136t110 101t135.5 58l4 11q-47 19 -85 46t-65 61.5t-42 75t-15 87.5zM306 509q0 -77 19 -146t58.5 -120.5t99.5 -82t142 -30.5 q81 0 140 30.5t98 82t58 120.5t19 146v21q0 63 -22.5 125.5t-63.5 115t-98.5 90t-128.5 49.5q-81 1 -141 -29.5t-100 -83t-60 -122t-20 -145.5v-21z" />
<glyph unicode="&#x3b5;" d="M618 478q-145 0 -219 -40.5t-74 -133.5q0 -37 20 -69t58.5 -55.5t95.5 -37t131 -13.5q66 0 122 15t96.5 41.5t63.5 61t23 73.5h185q-1 -59 -20.5 -107.5t-54 -86t-81.5 -65t-101 -46t-113.5 -27t-119.5 -8.5q-108 0 -198 21.5t-155.5 63t-101.5 101.5t-36 138 q0 95 56.5 158t162.5 94q-95 35 -147.5 95.5t-52.5 135.5q0 78 33 136.5t94.5 98t149 59.5t195.5 20q95 0 180.5 -22t150 -63.5t102.5 -101t39 -134.5h-185q0 37 -23.5 68.5t-62.5 54t-91 35.5t-110 13q-75 0 -129 -13t-89 -35.5t-51.5 -52.5t-16.5 -64q0 -37 15 -66.5 t48 -50.5t85 -32t126 -11h243v-148h-243z" />
<glyph unicode="&#x3b6;" d="M1071 1456v-120l-409 -427q-69 -66 -124 -124.5t-93.5 -118.5t-59 -125t-20.5 -143q0 -99 46 -148t136 -67l221 -50q54 -12 102 -25t83 -36t55.5 -60.5t20.5 -99.5q-1 -39 -18.5 -82t-43.5 -82.5t-57.5 -74t-59.5 -56.5l-98 84q49 54 74 96.5t25 86.5q0 35 -37.5 63 t-117.5 44l-181 35q-89 16 -152.5 45.5t-104 74t-59.5 105.5t-19 142q0 57 21 124.5t64.5 143.5t110.5 158t159 169l306 316h-724v152h954z" />
<glyph unicode="&#x3b7;" d="M331 1082l13 -160q55 84 140 131.5t197 48.5q90 0 161 -22t121 -71.5t77 -129t27 -194.5v-1100h-186v1096q0 144 -64 206.5t-191 62.5q-101 0 -169 -38.5t-107 -103.5v-808h-186v1082h167z" />
<glyph unicode="&#x3b8;" d="M1048 557q0 -138 -28.5 -245.5t-83.5 -181t-135 -112t-183 -38.5q-102 0 -182.5 38.5t-136 112t-85 181t-29.5 245.5v341q0 138 29 245.5t84 182t135.5 113t182.5 38.5q103 0 183.5 -38.5t135.5 -113t84 -182t29 -245.5v-341zM863 659h-493v-141q0 -186 60.5 -287 t187.5 -101t186 101t59 287v141zM370 810h493v129q0 186 -59.5 286t-187.5 100q-127 0 -186.5 -100t-59.5 -286v-129z" />
<glyph unicode="&#x3b9;" d="M184 1082h537l1 -760q0 -65 13.5 -102.5t37 -56t53.5 -23.5t63 -5q45 0 84 14t68 31l41 -130q-62 -44 -120 -57t-120 -13q-72 0 -128.5 17t-96 58t-60.5 108.5t-21 168.5v589h-352v161z" />
<glyph unicode="&#x3ba;" d="M521 477l-150 -133v-344h-185v1082h185v-531l110 120l398 411h223l-456 -479l492 -603h-234z" />
<glyph unicode="&#x3bb;" d="M263 0h-206l395 1032l-55 143q-14 35 -31 69.5t-39 61.5t-49.5 43.5t-61.5 16.5q-13 0 -33 -2t-33 -3l-1 142q18 5 48 10t55 5q72 0 125 -27t90.5 -67.5t62 -88t39.5 -87.5l362 -950q10 -33 24.5 -61t31.5 -48.5t38 -32.5t45 -12h13t9.5 1t9.5 1.5t14 2.5l-2 -151 q-11 -6 -29 -10.5t-30 -4.5q-59 0 -105 17t-82.5 50.5t-65 83.5t-52.5 116l-212 555l-29 -119z" />
<glyph unicode="&#x3bc;" d="M373 1082v-622q0 -100 16 -164t45.5 -101t70 -51t88.5 -14q107 0 169.5 41t91.5 112v799h186v-1082h-167l-9 116q-44 -65 -108.5 -100.5t-154.5 -35.5q-146 0 -228 73v-469h-185v1498h185z" />
<glyph unicode="&#x3bd;" d="M598 266l17 -67l18 67l303 816h189l-441 -1082h-141l-445 1082h190z" />
<glyph unicode="&#x3be;" d="M1015 1288q-57 15 -113.5 25.5t-117.5 10.5q-95 0 -162.5 -15t-111 -40.5t-64 -59.5t-20.5 -73q0 -51 21 -91.5t67.5 -69t119 -43.5t174.5 -15h142v-152h-142q-221 0 -334.5 -78t-113.5 -243q0 -68 27.5 -119t74 -88t108 -60t128.5 -35l111 -25q54 -13 101.5 -25.5 t83 -35t56 -59.5t20.5 -98q-1 -39 -18.5 -81t-44 -81.5t-57.5 -73.5t-58 -56l-97 84q24 27 42 48t30.5 41.5t19 43t6.5 51.5q-1 44 -40 65.5t-116 38.5l-58 13q-114 22 -207 54.5t-159 84t-102 128.5t-36 189q0 76 23.5 139t68 112t107.5 85t142 58q-65 21 -116 50.5 t-86.5 66.5t-54.5 80.5t-19 92.5q0 83 37.5 147t108 108t170.5 66.5t226 22.5q71 0 141 -11t118 -28z" />
<glyph unicode="&#x3bf;" d="M122 551q0 117 34 217.5t97.5 174.5t154.5 116.5t205 42.5q115 0 206.5 -42.5t155 -116.5t97.5 -174.5t34 -217.5v-22q0 -117 -34 -217t-97.5 -174t-154.5 -116t-205 -42q-115 0 -206.5 42t-155 116t-97.5 174t-34 217v22zM307 529q0 -80 19 -152.5t57.5 -127.5t96.5 -87 t135 -32q76 0 133.5 32t96 87t57.5 127.5t19 152.5v22q0 79 -19.5 151.5t-58 127.5t-96 87.5t-134.5 32.5t-134 -32.5t-95.5 -87.5t-57.5 -127.5t-19 -151.5v-22z" />
<glyph unicode="&#x3c0;" d="M1100 929h-143v-661q0 -44 8 -69.5t22 -39.5t32.5 -18t40.5 -4q26 0 50.5 8t41.5 17l41 -130q-47 -32 -90.5 -41.5t-90.5 -9.5q-57 0 -102 15t-75.5 49.5t-46.5 91.5t-16 141v651h-366v-929h-185v929h-132v153h1011v-153z" />
<glyph unicode="&#x3c1;" d="M1094 500q0 -112 -27 -207.5t-79.5 -165t-130 -108.5t-179.5 -39q-106 0 -187.5 34t-140.5 98v-528h-185v993v1q0 127 36.5 225t100 164.5t148 100.5t180.5 34q117 0 204.5 -44t145 -121.5t86 -183.5t28.5 -232v-21zM909 521q0 85 -15 163t-48 137t-86 94t-130 35 q-49 0 -89 -16t-71 -44t-53.5 -65t-37 -78.5t-22 -85t-7.5 -84.5v-293q19 -33 45 -61.5t59.5 -49t75.5 -32t93 -11.5q76 0 130.5 29.5t89 80.5t50.5 118t16 142v21z" />
<glyph unicode="&#x3c2;" d="M614 1102q100 0 184 -26.5t144.5 -77t95 -123.5t34.5 -166h-175q0 50 -18 94t-53 76.5t-88 51.5t-124 19q-81 0 -139.5 -34.5t-96 -90t-55 -124.5t-17.5 -139v-42q0 -68 21.5 -129.5t66 -110.5t112.5 -83.5t160 -47.5q86 -12 155 -28.5t118 -44.5t75 -71.5t26 -109.5 q-1 -59 -24 -108.5t-59.5 -89.5t-81.5 -70t-90 -50l-77 123q22 10 49 25.5t50.5 38t39.5 52.5t16 70q1 51 -55 75.5t-164 38.5q-130 19 -228 63t-163.5 110.5t-99 154t-33.5 192.5v42q0 108 33 205.5t96 172t154.5 118.5t210.5 44z" />
<glyph unicode="&#x3c3;" d="M1158 929h-283q97 -72 148.5 -177.5t51.5 -237.5v-23q0 -99 -32.5 -191t-94 -163t-151.5 -114t-204 -43q-115 0 -205 42t-152 116t-94.5 174t-32.5 217v22q0 112 32.5 209.5t94.5 168.5t151.5 112t203.5 41h567v-153zM294 529q0 -80 18 -152.5t54.5 -127.5t93 -87 t133.5 -32q76 0 132 32t93 87t54.5 127.5t17.5 152.5v22q0 76 -18 144.5t-54.5 120.5t-93 82.5t-133.5 30.5q-76 0 -132 -30.5t-92.5 -82.5t-54.5 -120.5t-18 -144.5v-22z" />
<glyph unicode="&#x3c4;" d="M1074 924h-355l-1 -600q0 -64 13.5 -101.5t35.5 -56.5t51 -24.5t62 -5.5q44 0 82.5 13.5t65.5 30.5l41 -131q-30 -22 -59.5 -35.5t-58.5 -21t-58.5 -10.5t-59.5 -3q-72 0 -127.5 18t-94 59.5t-58.5 109t-20 168.5v590h-360v158h901v-158z" />
<glyph unicode="&#x3c5;" d="M343 1082v-619q0 -89 19 -152t54 -103.5t84.5 -59t109.5 -18.5q77 0 132 38.5t90.5 100t52.5 138.5t17 155q-3 134 -37.5 264.5t-86.5 255.5h195q23 -48 43.5 -104.5t36.5 -121.5t25 -138.5t9 -155.5q0 -114 -26 -219.5t-82 -186t-145 -128.5t-215 -48q-110 0 -195.5 29 t-144.5 88.5t-90 151t-31 216.5v617h185z" />
<glyph unicode="&#x3c6;" d="M525 -14q-113 15 -191.5 66.5t-128.5 127t-72.5 170t-22.5 196.5q0 170 61.5 307.5t189.5 228.5l101 -133q-45 -41 -76 -90t-50.5 -101.5t-29 -106.5t-11.5 -106q0 -64 12.5 -128t39.5 -118.5t71 -96t107 -59.5v692q0 48 15 92.5t45.5 79t77.5 55t111 20.5q78 0 145 -42 t117 -114.5t78.5 -171t28.5 -210.5q0 -101 -24 -195t-76 -170t-134 -127.5t-199 -66.5v-463h-185v464zM710 141q67 18 114 59t77 96.5t43.5 120t13.5 127.5q-2 70 -13.5 139t-34 123.5t-56.5 88.5t-80 34q-33 0 -48 -24t-16 -63v-701z" />
<glyph unicode="&#x3c7;" d="M621 681l289 401h217l-403 -535l414 -547h-214l-299 412l-299 -412h-216l414 547l-403 535h214z" />
<glyph unicode="&#x3c8;" d="M700 1082v-942q73 18 124 61t82.5 101.5t46 127.5t14.5 137q-2 134 -26.5 262t-62.5 253h195q32 -95 55.5 -223t23.5 -292q0 -107 -24 -206t-77.5 -178t-139.5 -131.5t-211 -66.5v-457h-185v459q-99 14 -176.5 58t-131.5 120t-82 183.5t-28 247.5v486h185v-488 q0 -103 16.5 -181t47 -133.5t73.5 -89t96 -48.5v940h185z" />
<glyph unicode="&#x3c9;" d="M369 1082q-45 -126 -74 -256.5t-31 -265.5q0 -84 6 -161.5t20.5 -137.5t37.5 -95.5t57 -35.5q67 0 104.5 83t37.5 258v299h186v-299q0 -175 37.5 -258t103.5 -83q34 0 57.5 35.5t38 94.5t20.5 137t6 163q-2 135 -31 265.5t-74 256.5h194q40 -97 68 -227t28 -295 q0 -111 -15 -215.5t-50 -185.5t-92 -130t-140 -49q-90 0 -151 54.5t-93 156.5q-33 -102 -93.5 -156.5t-150.5 -54.5q-83 0 -140 49t-92 130t-50 185.5t-15 215.5q0 165 28 295t68 227h194z" />
<glyph unicode="&#x3ca;" d="M184 1082h537l1 -760q0 -65 13.5 -102.5t37 -56t53.5 -23.5t63 -5q45 0 84 14t68 31l41 -130q-62 -44 -120 -57t-120 -13q-72 0 -128.5 17t-96 58t-60.5 108.5t-21 168.5v589h-352v161zM292 1375q0 45 27.5 75.5t81.5 30.5t82 -30.5t28 -75.5t-28 -75t-82 -30t-81.5 30 t-27.5 75zM722 1373q0 45 27.5 76t81.5 31t82 -31t28 -76q0 -44 -28 -74.5t-82 -30.5t-81.5 30.5t-27.5 74.5z" />
<glyph unicode="&#x3cb;" d="M343 1082v-619q0 -89 19 -152t54 -103.5t84.5 -59t109.5 -18.5q77 0 132 38.5t90.5 100t52.5 138.5t17 155q-3 134 -37.5 264.5t-86.5 255.5h195q23 -48 43.5 -104.5t36.5 -121.5t25 -138.5t9 -155.5q0 -114 -26 -219.5t-82 -186t-145 -128.5t-215 -48q-110 0 -195.5 29 t-144.5 88.5t-90 151t-31 216.5v617h185zM257 1375q0 45 27.5 75.5t81.5 30.5t82 -30.5t28 -75.5t-28 -75t-82 -30t-81.5 30t-27.5 75zM687 1373q0 45 27.5 76t81.5 31t82 -31t28 -76q0 -44 -28 -74.5t-82 -30.5t-81.5 30.5t-27.5 74.5z" />
<glyph unicode="&#x3cc;" d="M122 551q0 117 34 217.5t97.5 174.5t154.5 116.5t205 42.5q115 0 206.5 -42.5t155 -116.5t97.5 -174.5t34 -217.5v-22q0 -117 -34 -217t-97.5 -174t-154.5 -116t-205 -42q-115 0 -206.5 42t-155 116t-97.5 174t-34 217v22zM307 529q0 -80 19 -152.5t57.5 -127.5t96.5 -87 t135 -32q76 0 133.5 32t96 87t57.5 127.5t19 152.5v22q0 79 -19.5 151.5t-58 127.5t-96 87.5t-134.5 32.5t-134 -32.5t-95.5 -87.5t-57.5 -127.5t-19 -151.5v-22zM627 1662h195l-170 -387h-90z" />
<glyph unicode="&#x3cd;" d="M343 1082v-619q0 -89 19 -152t54 -103.5t84.5 -59t109.5 -18.5q77 0 132 38.5t90.5 100t52.5 138.5t17 155q-3 134 -37.5 264.5t-86.5 255.5h195q23 -48 43.5 -104.5t36.5 -121.5t25 -138.5t9 -155.5q0 -114 -26 -219.5t-82 -186t-145 -128.5t-215 -48q-110 0 -195.5 29 t-144.5 88.5t-90 151t-31 216.5v617h185zM597 1642h195l-170 -387h-90z" />
<glyph unicode="&#x3ce;" d="M369 1082q-45 -126 -74 -256.5t-31 -265.5q0 -84 6 -161.5t20.5 -137.5t37.5 -95.5t57 -35.5q67 0 104.5 83t37.5 258v299h186v-299q0 -175 37.5 -258t103.5 -83q34 0 57.5 35.5t38 94.5t20.5 137t6 163q-2 135 -31 265.5t-74 256.5h194q40 -97 68 -227t28 -295 q0 -111 -15 -215.5t-50 -185.5t-92 -130t-140 -49q-90 0 -151 54.5t-93 156.5q-33 -102 -93.5 -156.5t-150.5 -54.5q-83 0 -140 49t-92 130t-50 185.5t-15 215.5q0 165 28 295t68 227h194zM639 1642h195l-170 -387h-90z" />
<glyph unicode="&#x3d1;" d="M1177 627q-67 -24 -144 -32v-160q0 -109 -31 -194t-87 -143t-135.5 -88t-177.5 -30q-102 0 -185 32.5t-141.5 92t-91 143.5t-32.5 187v334l186 2v-336q0 -69 18 -124.5t52 -94t83 -59t111 -20.5q118 -1 182 73.5t64 224.5v166q-110 16 -199.5 61t-153 112.5t-98.5 154.5 t-35 187v15q0 81 25 145.5t69 109.5t105 68.5t135 23.5q79 0 142 -25.5t106 -73.5t66 -117t23 -157v-353q35 3 69 9.5t66 14.5zM548 1114q0 -63 20 -120t58.5 -103t94.5 -79t127 -49v342q0 109 -37 162t-115 53q-67 0 -107.5 -44.5t-40.5 -144.5v-17z" />
<glyph unicode="&#x3d2;" d="M825 1239q26 63 54 107t59.5 71t66.5 38.5t75 11.5q28 0 54.5 -3.5t53.5 -20.5l-22 -149q-14 9 -44 9q-35 0 -64.5 -19t-47.5 -59l-296 -645v-580h-184v576l-298 649q-18 39 -47.5 58.5t-64.5 19.5q-29 0 -43 -9l-23 149q27 17 53.5 20.5t55.5 3.5q39 0 74 -11.5 t66.5 -38.5t60 -71t54.5 -107l179 -407l24 -88l24 88z" />
<glyph unicode="&#x3d6;" d="M1174 929h-126q32 -106 53 -231.5t21 -265.5q0 -89 -14.5 -170.5t-47 -144t-86 -100t-131.5 -37.5q-90 0 -151 54.5t-93 157.5q-32 -102 -92.5 -157t-150.5 -55q-78 0 -131.5 37.5t-86 100t-47 144t-14.5 170.5q0 140 20.5 265.5t53.5 231.5h-105v153h1128v-153zM936 431 q-2 124 -25.5 250.5t-61.5 247.5h-499q-38 -121 -61.5 -247.5t-25.5 -250.5q0 -59 5 -113.5t17 -96t31.5 -66.5t49.5 -25q67 0 104 83t37 258v251h186v-251q0 -175 37 -258t104 -83q29 0 48.5 24.5t31.5 65.5t17 96t5 115z" />
<glyph unicode="&#x400;" d="M975 673h-608v-516h709v-157h-894v1456h885v-158h-700v-468h608v-157zM700 1561h-150l-248 266h223z" />
<glyph unicode="&#x401;" d="M975 673h-608v-516h709v-157h-894v1456h885v-158h-700v-468h608v-157zM292 1718q0 45 27.5 75.5t81.5 30.5t82 -30.5t28 -75.5t-28 -75t-82 -30t-81.5 30t-27.5 75zM722 1716q0 45 27.5 76t81.5 31t82 -31t28 -76q0 -44 -28 -74.5t-82 -30.5t-81.5 30.5t-27.5 74.5z" />
<glyph unicode="&#x402;" d="M1085 1304h-512v-455q30 2 60.5 4t61.5 2q108 0 192.5 -32t142.5 -91t88 -144.5t30 -191.5q0 -198 -101 -302.5t-293 -104.5l-2 145q58 0 98.5 18.5t65 52.5t35.5 82.5t11 108.5q-1 139 -65.5 218t-201.5 79q-32 0 -62 -2l-60 -4v-687h-184v1304h-347v152h1043v-152z" />
<glyph unicode="&#x403;" d="M1072 1304h-705v-1304h-186v1456h891v-152zM722 1824h224l-268 -266h-140z" />
<glyph unicode="&#x404;" d="M1131 439q-10 -101 -46 -185.5t-98.5 -145.5t-150.5 -94.5t-202 -33.5q-117 0 -210.5 43.5t-159 122t-100.5 187t-35 239.5v313q0 131 35 240t100.5 187t159 121.5t210.5 43.5q114 0 202 -31.5t150.5 -91.5t98.5 -146.5t46 -196.5h-185q-10 75 -32 134t-59 99t-91.5 61 t-129.5 21q-79 0 -138.5 -33.5t-100 -92t-61 -139t-20.5 -174.5v-75h571v-152h-571v-88q0 -95 20.5 -175.5t61 -139.5t100 -92.5t138.5 -33.5q75 0 129.5 19.5t92 58t59 96t31.5 134.5h185z" />
<glyph unicode="&#x405;" d="M936 368q0 67 -30.5 113t-78.5 77.5t-105.5 52.5t-110.5 38q-77 25 -156.5 60t-145 86t-107 120.5t-41.5 163.5t41.5 168t108.5 125t152 77.5t171 26.5q95 0 183 -31.5t156 -88.5t109 -138t43 -181h-190q-8 63 -31 114.5t-61 88.5t-90.5 57.5t-118.5 20.5 q-53 0 -103.5 -15t-90 -45t-63 -74t-23.5 -102q1 -63 32 -106.5t78.5 -73.5t103 -50t104.5 -35q54 -17 109 -38.5t106 -49.5t95 -63t77 -79.5t51.5 -98t18.5 -118.5q0 -98 -43.5 -171t-112.5 -121.5t-156 -73t-174 -24.5q-97 0 -190 30t-166.5 86.5t-119.5 138t-49 185.5 h189q9 -68 37 -120.5t72 -89t101.5 -55t125.5 -18.5q54 0 106.5 13.5t93.5 42t67 72t26 103.5z" />
<glyph unicode="&#x406;" d="M174 1456h880v-161h-349v-1135h349v-160h-880v160h341v1135h-341v161z" />
<glyph unicode="&#x407;" d="M174 1456h880v-161h-349v-1135h349v-160h-880v160h341v1135h-341v161zM241 1718q0 45 27.5 75.5t81.5 30.5t82 -30.5t28 -75.5t-28 -75t-82 -30t-81.5 30t-27.5 75zM671 1716q0 45 27.5 76t81.5 31t82 -31t28 -76q0 -44 -28 -74.5t-82 -30.5t-81.5 30.5t-27.5 74.5z" />
<glyph unicode="&#x408;" d="M857 1456h189v-1013q-2 -101 -38.5 -186t-99.5 -146.5t-148.5 -96t-186.5 -34.5q-102 0 -185.5 31t-145 88.5t-98.5 139t-46 182.5h188q3 -61 24.5 -113t58.5 -90.5t88.5 -59.5t115.5 -21q66 0 118 24.5t88.5 66.5t56 97.5t21.5 117.5v1013z" />
<glyph unicode="&#x409;" d="M747 1456v-569h91q84 0 148.5 -34.5t107.5 -94t65 -140.5t22 -175t-22 -175t-65 -140.5t-107.5 -93.5t-148.5 -34h-276v1304h-197l-1 -532q0 -184 -15.5 -327.5t-50.5 -242.5t-93 -150.5t-143 -51.5h-32v151h22q72 0 99.5 157.5t28.5 463.5l3 684h564zM747 735v-584h91 q44 0 74.5 25.5t49 67t27 94t8.5 107.5q0 54 -8.5 106t-27.5 93t-49.5 66t-73.5 25h-91z" />
<glyph unicode="&#x40a;" d="M315 825h250v631h184v-617h49q91 0 159.5 -31t114 -86.5t68.5 -131.5t23 -166t-23 -167.5t-68.5 -134.5t-114 -89.5t-159.5 -32.5h-233v673h-250v-673h-184v1456h184v-631zM749 687v-526h49q51 0 85.5 22.5t56 59.5t30.5 84.5t9 98.5t-9.5 98t-30.5 83t-55.5 58t-85.5 22 h-49z" />
<glyph unicode="&#x40b;" d="M1088 1304h-490v-452q28 4 55 6t53 1q99 0 177.5 -23t132.5 -72t83 -125t29 -182v-457h-185v457q0 68 -14 115.5t-43.5 77.5t-74 43.5t-105.5 13.5q-56 0 -108 -6v-701h-185v1304h-346v152h1021v-152z" />
<glyph unicode="&#x40c;" d="M523 676l-162 -184v-492h-189v1456h189v-711l141 176l427 535h225l-509 -637l543 -819h-225zM720 1806h224l-268 -266h-140z" />
<glyph unicode="&#x40d;" d="M881 1456h185v-1456h-185l1 1073l-535 -1073h-185v1456h185l-1 -1072zM687 1549h-150l-248 266h223z" />
<glyph unicode="&#x40e;" d="M559 759l71 -191l360 888h215l-535 -1216q-23 -52 -52.5 -99.5t-71.5 -83.5t-101.5 -57t-142.5 -21q-68 0 -120.5 12t-78.5 23l24 141q13 -3 31.5 -7.5t40 -8.5t43 -6.5t40.5 -2.5q46 0 81 13.5t61 35.5t44 50t31 56l42 85l-498 1086h208zM946 1866q0 -59 -21 -108.5 t-60 -84.5t-94 -54.5t-123 -19.5q-69 0 -124 19.5t-94 54.5t-60.5 84.5t-21.5 108.5h150q0 -30 9 -57.5t27 -47.5t46 -32t68 -12q39 0 66.5 12t45.5 32t27 47.5t9 57.5h150z" />
<glyph unicode="&#x40f;" d="M162 1456h185v-1305h534v1305h185v-1456h-355v-359h-185v359h-364v1456z" />
<glyph unicode="&#x410;" d="M869 377h-486l-117 -377h-185l470 1456h155l462 -1456h-184zM433 538h387l-192 632z" />
<glyph unicode="&#x411;" d="M1053 1304h-705v-447h266q116 0 206.5 -30t152.5 -85.5t94.5 -133.5t32.5 -175q0 -96 -32.5 -176t-94.5 -137t-152.5 -88.5t-206.5 -31.5h-452v1456h891v-152zM348 706v-555h266q78 0 134.5 23t93.5 62t54.5 90.5t17.5 108.5q0 56 -17.5 105.5t-54.5 86t-93.5 58 t-134.5 21.5h-266z" />
<glyph unicode="&#x412;" d="M172 0v1456h433q90 -1 176 -23.5t153 -69.5t107 -120t39 -175q-1 -57 -18.5 -104t-48 -84.5t-71.5 -65.5t-87 -48q58 -17 106.5 -48.5t83.5 -76t54.5 -100.5t19.5 -121q1 -102 -39 -180t-107 -130.5t-154.5 -80.5t-180.5 -29h-466zM358 681v-524h285q58 1 110 19.5 t92 51.5t63.5 81t23.5 109q1 62 -20.5 110t-59.5 81.5t-89 51.5t-110 20h-295zM358 835h258q52 1 102 16.5t89 45t63 72.5t24 100q0 61 -23.5 104t-63 70.5t-91 40.5t-105.5 14h-253v-463z" />
<glyph unicode="&#x413;" d="M1072 1304h-705v-1304h-186v1456h891v-152z" />
<glyph unicode="&#x414;" d="M1126 -357h-167v357h-705v-359h-157l-27 510h65q46 30 81 86.5t60 144t40 208.5t20 281l32 585h649v-1305h127zM523 871q-9 -242 -42 -424.5t-97 -295.5h448v1153h-287z" />
<glyph unicode="&#x415;" d="M975 673h-608v-516h709v-157h-894v1456h885v-158h-700v-468h608v-157z" />
<glyph unicode="&#x416;" d="M763 651h-54v-651h-183v651h-62l-205 -651h-230l269 727l-230 729h215l174 -653h69v653h183v-653h62l173 653h216l-232 -727l270 -729h-229z" />
<glyph unicode="&#x417;" d="M615 818q159 1 236 68.5t77 179.5q0 55 -20.5 102t-61.5 82t-102 55t-143 20q-63 0 -119 -18.5t-97 -52t-65.5 -79.5t-24.5 -100h-185q0 93 39.5 167.5t107 126t156.5 79.5t188 28q115 0 209.5 -26t162 -78t104.5 -130t37 -180q-1 -103 -64.5 -185t-173.5 -130 q125 -42 192.5 -127t67.5 -214q0 -103 -40.5 -182.5t-112 -134t-169.5 -82.5t-213 -28q-95 0 -186.5 24.5t-163.5 76.5t-117 132.5t-45 191.5h186q0 -57 24 -107t67 -87t103 -58.5t132 -21.5q81 0 145.5 20t110 56t69.5 86t24 110q0 69 -22.5 118.5t-65.5 82t-105.5 48 t-141.5 15.5h-183v152h183z" />
<glyph unicode="&#x418;" d="M881 1456h185v-1456h-185l1 1073l-535 -1073h-185v1456h185l-1 -1072z" />
<glyph unicode="&#x419;" d="M881 1456h185v-1456h-185l1 1073l-535 -1073h-185v1456h185l-1 -1072zM906 1854q0 -59 -21 -108.5t-60 -84.5t-94 -54.5t-123 -19.5q-69 0 -124 19.5t-94 54.5t-60.5 84.5t-21.5 108.5h150q0 -30 9 -57.5t27 -47.5t46 -32t68 -12q39 0 66.5 12t45.5 32t27 47.5t9 57.5 h150z" />
<glyph unicode="&#x41a;" d="M525 659h-171v-659h-185v1456h185v-646h156l443 646h212l-495 -705l536 -751h-227z" />
<glyph unicode="&#x41b;" d="M1067 1456v-1456h-185v1304h-421l-2 -624q0 -162 -19 -288.5t-61.5 -213.5t-111.5 -132.5t-169 -45.5h-51v151h40q102 0 144.5 134.5t42.5 394.5l4 776h789z" />
<glyph unicode="&#x41c;" d="M377 1456l237 -728l256 728h230v-1456h-180v581l15 608l-269 -784h-106l-247 763l15 -587v-581h-180v1456h229z" />
<glyph unicode="&#x41d;" d="M1087 0h-175v673h-597v-673h-174v1456h174v-626h597v626h175v-1456z" />
<glyph unicode="&#x41e;" d="M1121 644q-1 -78 -13.5 -157.5t-38.5 -153.5t-66.5 -138t-96.5 -112t-128.5 -75.5t-162.5 -27.5t-162.5 27.5t-128.5 75.5t-97 112.5t-67.5 138.5t-39.5 153t-14 157v166q1 78 13.5 157.5t39 153.5t67 138.5t96.5 113t128.5 76t162.5 27.5t163 -27.5t129 -75.5 t96.5 -112.5t67 -138.5t39 -154t13.5 -158v-166zM938 812q-1 52 -7 108.5t-20.5 112t-38.5 106t-60 89t-85 61t-114 22.5q-64 0 -113 -23t-85 -61.5t-60 -89t-38.5 -106t-21 -112t-7.5 -107.5v-168q1 -51 7.5 -108t21.5 -112.5t39 -106.5t60 -89.5t85 -61.5t114 -23 t114.5 23t85 61.5t59 89t38 106t20 112.5t6.5 109v168z" />
<glyph unicode="&#x41f;" d="M1066 0h-185v1304h-534v-1304h-185v1456h904v-1456z" />
<glyph unicode="&#x420;" d="M376 584v-584h-185v1456h472q98 -2 185.5 -31t153.5 -84t104.5 -136t38.5 -186t-38.5 -185.5t-104.5 -135.5t-153.5 -84t-185.5 -30h-287zM376 736h287q64 1 118 20.5t94 55.5t62.5 87.5t22.5 117.5t-22.5 119t-62 90t-94 57t-118.5 21h-287v-568z" />
<glyph unicode="&#x421;" d="M1117 438q-13 -101 -52 -185.5t-101.5 -145t-148 -94t-190.5 -33.5q-90 0 -163.5 25.5t-131 70.5t-99 106t-69 133t-41 151t-14.5 160v203q1 81 14.5 160t41 151t69 133.5t99 106.5t130.5 70.5t164 25.5q109 0 195 -33.5t148 -95t99.5 -147.5t49.5 -190h-185 q-9 66 -31 123t-59 100t-90.5 67.5t-126.5 24.5q-66 0 -116.5 -21.5t-87 -58.5t-61 -86t-39.5 -104t-21.5 -112.5t-6.5 -111.5v-205q0 -54 6.5 -111.5t21.5 -113t39 -104.5t61 -86.5t87 -59t117 -21.5q73 0 126.5 23t90.5 64.5t59 98t31 122.5h185z" />
<glyph unicode="&#x422;" d="M1156 1298h-450v-1298h-180v1298h-450v158h1080v-158z" />
<glyph unicode="&#x423;" d="M559 759l71 -191l360 888h215l-535 -1216q-23 -52 -52.5 -99.5t-71.5 -83.5t-101.5 -57t-142.5 -21q-68 0 -120.5 12t-78.5 23l24 141q13 -3 31.5 -7.5t40 -8.5t43 -6.5t40.5 -2.5q46 0 81 13.5t61 35.5t44 50t31 56l42 85l-498 1086h208z" />
<glyph unicode="&#x424;" d="M707 1250q97 -8 179.5 -49t143 -110t95 -162t34.5 -204q0 -112 -34.5 -205.5t-95 -163t-143 -111.5t-179.5 -49v-196h-185v196q-98 7 -180.5 48t-143.5 110t-95 163t-34 206q0 111 34 205t95 163t143.5 110.5t180.5 48.5v206h185v-206zM252 723q0 -80 18 -146.5 t52.5 -115t84.5 -78t115 -35.5v750q-65 -7 -115 -36.5t-84.5 -78.5t-52.5 -115t-18 -145zM975 725q0 79 -18 144.5t-52.5 114t-84 78t-113.5 36.5v-750q64 7 113.5 36.5t84 78.5t52.5 115.5t18 146.5z" />
<glyph unicode="&#x425;" d="M625 885l314 571h218l-423 -722l433 -734h-216l-322 582l-323 -582h-219l434 734l-423 722h217z" />
<glyph unicode="&#x426;" d="M166 1456h185v-1305h521v1305h185v-1300h147l-18 -507h-166v351h-854v1456z" />
<glyph unicode="&#x427;" d="M1063 1456v-1456h-185v603q-33 -12 -66 -21t-68.5 -16t-76 -10.5t-88.5 -3.5q-97 0 -173 24.5t-128 78.5t-79.5 139t-27.5 206v456h185v-456q0 -85 13.5 -141.5t41 -91t69.5 -49t99 -14.5q83 0 155 14.5t144 38.5v699h185z" />
<glyph unicode="&#x428;" d="M310 1456v-1305h213v1305h184v-1305h213v1305h184v-1456h-979v1456h185z" />
<glyph unicode="&#x429;" d="M310 1456v-1305h213v1305h184v-1305h149v1h64v1304h184v-1304h90l-18 -503h-165v351h-886v1456h185z" />
<glyph unicode="&#x42a;" d="M50 1456h490v-599h144q111 0 197 -30.5t144.5 -86t89 -133.5t30.5 -174q0 -95 -30.5 -174.5t-89 -137t-144.5 -89.5t-197 -32h-329v1304h-305v152zM540 706v-555h144q73 0 125 23.5t85.5 62.5t49 90.5t15.5 107.5q0 55 -15.5 104.5t-49 86.5t-85.5 58.5t-125 21.5h-144z " />
<glyph unicode="&#x42b;" d="M329 857h92q95 0 167.5 -30.5t122 -86t74.5 -134t25 -173.5t-25 -174.5t-74.5 -137t-122 -89.5t-167.5 -32h-277v1456h185v-599zM1099 0h-185v1456h185v-1456zM329 706v-555h92q55 0 94 23.5t63 63t35 90.5t11 107q0 55 -11 104t-35.5 86t-63 59t-93.5 22h-92z" />
<glyph unicode="&#x42c;" d="M353 857h266q116 0 206.5 -30t152.5 -85.5t94.5 -133.5t32.5 -175q0 -96 -32.5 -176t-94.5 -137t-152.5 -88.5t-206.5 -31.5h-451v1456h185v-599zM353 706v-555h266q78 0 134.5 23t93.5 62t54.5 90.5t17.5 108.5q0 56 -17.5 105.5t-54.5 86t-93.5 58t-134.5 21.5h-266z " />
<glyph unicode="&#x42d;" d="M299 465q1 -76 20.5 -137.5t56.5 -105t91.5 -67.5t125.5 -24q78 0 139 32t103 89t64.5 136t22.5 173v90h-484v151h484v93q0 94 -22 173.5t-64 136.5t-103 89t-140 32q-71 0 -125.5 -24t-91.5 -67.5t-56.5 -106t-20.5 -138.5h-185q1 101 34.5 190t96 155t150.5 104t198 38 q117 0 212 -42t162 -118.5t103.5 -184t36.5 -238.5v-332q0 -131 -36.5 -238t-103.5 -183.5t-162 -118.5t-212 -42q-110 0 -198 34.5t-150.5 98t-96 153t-34.5 199.5h185z" />
<glyph unicode="&#x42e;" d="M1130 515q0 -127 -23 -226.5t-69 -168t-114.5 -104.5t-158.5 -36q-86 0 -151 36t-108.5 104.5t-65.5 168t-22 226.5v122h-114v-637h-185v1456h185v-668h114v152q0 127 21.5 226.5t65 168.5t108.5 105t151 36q91 0 159.5 -36t114.5 -105t69 -168.5t23 -226.5v-425z M945 942q0 188 -40.5 282t-140.5 94q-45 0 -76 -23.5t-50 -70.5t-27 -117.5t-8 -164.5v-427q0 -95 8 -166t27 -118t50 -70.5t77 -23.5q50 0 84.5 23.5t55.5 70.5t30.5 118t9.5 166v427z" />
<glyph unicode="&#x42f;" d="M877 0v607h-310l-305 -607h-197l341 658q-140 51 -214 145t-74 233q0 100 35.5 178.5t102 132t161 81.5t211.5 28h434v-1456h-185zM303 1038q0 -59 20.5 -110t60.5 -88.5t100 -58.5t138 -21h255v544h-249q-80 0 -140.5 -18.5t-101.5 -53t-62 -84t-21 -110.5z" />
<glyph unicode="&#x430;" d="M885 0q-11 21 -17.5 52.5t-9.5 65.5q-28 -28 -62.5 -53t-76 -44t-88.5 -30t-100 -11q-86 0 -155.5 25t-118 67.5t-75 101t-26.5 126.5q0 89 35.5 156t100.5 111.5t156.5 66.5t204.5 22h202v85q0 49 -18 88t-51 66.5t-80.5 42.5t-106.5 15q-55 0 -98.5 -14t-73.5 -37 t-46.5 -54.5t-16.5 -65.5h-186q1 59 30.5 116t85 102.5t135 73.5t180.5 28q92 0 171 -22.5t136.5 -68t90.5 -113.5t33 -159v-503q0 -54 10 -114.5t28 -105.5v-16h-193zM558 141q54 0 101 14t85.5 37t66.5 52.5t44 61.5v219h-172q-162 0 -252 -48t-90 -151q0 -40 13.5 -74 t40.5 -58.5t68 -38.5t95 -14z" />
<glyph unicode="&#x431;" d="M646 1020q106 0 189 -37.5t141 -103t88.5 -155t30.5 -194.5v-23q0 -113 -32.5 -209t-94.5 -167t-151.5 -111t-203.5 -40t-204 40t-152 111t-95 167t-33 209v23v7v69q0 181 34.5 318.5t98 234t154 154t201.5 78.5q53 10 98.5 21.5t79 29t52.5 44t19 67.5h152 q0 -66 -14.5 -113t-40 -79.5t-60 -53t-74.5 -34.5t-84 -23t-88 -19q-70 -15 -131 -41.5t-109 -71.5t-81 -110.5t-48 -157.5q32 37 71 68.5t84 54t96 35t107 12.5zM611 868q-76 0 -132 -27.5t-92.5 -74t-54.5 -107.5t-18 -129v-23q0 -76 18 -144.5t54.5 -120t93 -82 t133.5 -30.5q76 0 131.5 30.5t92.5 82t55 120t18 144.5v23q0 68 -18 129t-55 107.5t-93.5 74t-132.5 27.5z" />
<glyph unicode="&#x432;" d="M164 0v1082h425q100 0 182 -18t140.5 -54t90 -92t31.5 -133t-45 -136t-131 -91q52 -12 92 -36.5t67.5 -57.5t41.5 -73t14 -84q0 -77 -29 -134.5t-83 -96t-130.5 -57.5t-171.5 -19h-494zM350 475v-326h308q112 0 170 42t58 122q0 78 -58.5 120t-169.5 42h-308zM350 623 h241q124 0 190.5 37t66.5 115q0 81 -67.5 119t-191.5 38h-239v-309z" />
<glyph unicode="&#x433;" d="M1066 929h-697v-929h-186v1082h883v-153z" />
<glyph unicode="&#x434;" d="M156 151q43 6 72.5 45.5t48.5 107.5t30.5 162t18.5 210l16 406h697v-931h139l-18 -469h-167v318h-755v-318h-166l-18 469h102zM511 676q-5 -84 -12.5 -160t-18.5 -142.5t-27.5 -122.5t-40.5 -100h442v760h-334z" />
<glyph unicode="&#x435;" d="M652 -20q-114 0 -209.5 39t-163.5 109t-106 166t-38 209v42q0 131 42 234.5t111.5 175t158 109.5t181.5 38q117 0 204.5 -40.5t145.5 -112t86.5 -168.5t28.5 -210v-83h-773q3 -74 28.5 -139t70 -113.5t106.5 -76.5t137 -28q99 0 176 40t128 106l113 -88 q-27 -41 -67.5 -78.5t-93.5 -66.5t-120 -46.5t-146 -17.5zM628 950q-56 0 -106 -20.5t-90 -60t-67.5 -97t-38.5 -132.5h582v14q-3 54 -20.5 107t-51.5 95t-85.5 68t-122.5 26z" />
<glyph unicode="&#x436;" d="M757 470h-58v-470h-185v470h-59l-215 -470h-223l297 563l-262 519h214l189 -448h59v448h185v-448h59l190 448h214l-264 -519l298 -563h-224z" />
<glyph unicode="&#x437;" d="M636 630q128 0 192 40.5t64 115.5q0 34 -17.5 64t-51 52.5t-83.5 35.5t-115 13q-58 0 -110 -13t-91.5 -35.5t-63 -54t-23.5 -68.5h-185q1 75 39.5 134.5t103 101t150 63.5t180.5 22q100 0 183 -20t143 -59.5t93 -98t33 -136.5q0 -75 -53 -135.5t-144 -95.5 q103 -31 160.5 -94t57.5 -158q0 -78 -36.5 -138t-100.5 -101.5t-150 -62.5t-186 -21q-60 0 -119.5 8.5t-113.5 26.5t-101 45.5t-81.5 65t-54.5 86t-20 107.5h185q0 -39 23 -73.5t64 -61t97 -42t121 -15.5q64 0 117 13.5t90.5 37.5t58 56t20.5 69q0 46 -19 78.5t-55 53 t-87 29.5t-114 9h-241v156h241z" />
<glyph unicode="&#x438;" d="M878 1082h185v-1082h-185v798l-529 -798h-184v1082h184v-799z" />
<glyph unicode="&#x439;" d="M878 1082h185v-1082h-185v798l-529 -798h-184v1082h184v-799zM901 1523q0 -59 -21 -108.5t-60 -84.5t-94 -54.5t-123 -19.5q-69 0 -124 19.5t-94 54.5t-60.5 84.5t-21.5 108.5h150q0 -30 9 -57.5t27 -47.5t46 -32t68 -12q39 0 66.5 12t45.5 32t27 47.5t9 57.5h150z" />
<glyph unicode="&#x43a;" d="M525 461h-176v-461h-185v1082h185v-458h160l403 458h225l-464 -521l500 -561h-235z" />
<glyph unicode="&#x43b;" d="M1062 1082v-1082h-186v929h-398l-1 -310q0 -148 -18 -263t-60 -194t-113 -120.5t-177 -41.5h-54l3 165l41 1q57 0 94.5 28.5t59 85t30 141.5t8.5 198l2 463h769z" />
<glyph unicode="&#x43c;" d="M604 245l230 837h231v-1082h-185v667l-212 -667h-128l-218 691v-691h-185v1082h239z" />
<glyph unicode="&#x43d;" d="M1063 0h-185v462h-528v-462h-185v1082h185v-469h528v469h185v-1082z" />
<glyph unicode="&#x43e;" d="M122 551q0 117 34 217.5t97.5 174.5t154.5 116.5t205 42.5q115 0 206.5 -42.5t155 -116.5t97.5 -174.5t34 -217.5v-22q0 -117 -34 -217t-97.5 -174t-154.5 -116t-205 -42q-115 0 -206.5 42t-155 116t-97.5 174t-34 217v22zM307 529q0 -80 19 -152.5t57.5 -127.5t96.5 -87 t135 -32q76 0 133.5 32t96 87t57.5 127.5t19 152.5v22q0 79 -19.5 151.5t-58 127.5t-96 87.5t-134.5 32.5t-134 -32.5t-95.5 -87.5t-57.5 -127.5t-19 -151.5v-22z" />
<glyph unicode="&#x43f;" d="M1063 0h-185v929h-528v-929h-185v1082h898v-1082z" />
<glyph unicode="&#x440;" d="M1087 529q0 -116 -28 -216.5t-82 -174.5t-133.5 -116t-181.5 -42q-99 0 -174.5 32t-129.5 92v-520h-185v1498h169l9 -118q54 67 130.5 102.5t177.5 35.5q104 0 184 -41t134 -114t82 -174.5t28 -222.5v-21zM902 550q0 79 -17.5 150.5t-54 126t-92.5 86.5t-134 32 q-89 0 -149.5 -41.5t-96.5 -106.5v-521q36 -64 96 -104.5t152 -40.5q77 0 133 32.5t92 87.5t53.5 127t17.5 151v21z" />
<glyph unicode="&#x441;" d="M635 130q50 0 97.5 16t84.5 44.5t59.5 67t23.5 83.5h175q-1 -72 -37.5 -137.5t-97.5 -115t-140 -79t-165 -29.5q-123 0 -215 44t-153.5 118.5t-92.5 172t-31 205.5v42q0 107 31 205t92.5 172.5t153.5 118.5t215 44q96 0 176.5 -30.5t139 -83t91.5 -124.5t33 -154h-175 q-1 49 -21.5 92.5t-55.5 76.5t-83.5 52t-104.5 19q-86 0 -144.5 -34.5t-94.5 -90t-51.5 -124.5t-15.5 -139v-42q0 -71 15.5 -140.5t51 -125t94 -90t145.5 -34.5z" />
<glyph unicode="&#x442;" d="M1147 932h-432v-932h-186v932h-425v150h1043v-150z" />
<glyph unicode="&#x443;" d="M572 384l48 -131l330 829h207l-549 -1249q-19 -42 -48.5 -89t-71.5 -87t-98 -67t-129 -27q-13 0 -29 1.5t-32 4t-30 5.5t-23 5l30 151q7 0 19 -1t25 -2t25 -1.5t19 -0.5q38 0 69.5 21t56 50t42 60t27.5 51l74 144l-466 1031h207z" />
<glyph unicode="&#x444;" d="M122 551q0 104 27 196t78.5 163.5t125.5 119t167 64.5v442h185v-442q94 -16 168.5 -64t126.5 -119.5t79 -163.5t27 -196v-22q0 -105 -27.5 -196.5t-79 -163t-126 -119t-168.5 -62.5v-404h-185v405q-93 16 -167 63.5t-125.5 118.5t-78.5 162.5t-27 195.5v22zM921 551 q0 66 -13.5 128t-40.5 113t-67.5 88t-94.5 55v-792q54 18 94.5 55t67.5 88t40.5 113t13.5 130v22zM307 529q0 -67 13 -128.5t39.5 -112.5t66.5 -88t94 -55v790q-53 -18 -93 -55.5t-66.5 -88.5t-40 -112.5t-13.5 -127.5v-22z" />
<glyph unicode="&#x445;" d="M621 681l289 401h217l-403 -535l414 -547h-214l-299 412l-299 -412h-216l414 547l-403 535h214z" />
<glyph unicode="&#x446;" d="M170 1082h185v-931h498v931h186v-931h129l-18 -472h-166v321h-814v1082z" />
<glyph unicode="&#x447;" d="M1063 0h-185v395q-68 -17 -140.5 -26t-157.5 -9q-100 0 -181 25t-138.5 75.5t-88.5 127t-31 179.5v315h185v-315q1 -133 66.5 -194t187.5 -61q81 0 155 9t143 26v535h185v-1082z" />
<glyph unicode="&#x448;" d="M314 1082v-931h208v931h185v-931h208v931h185v-1082h-971v1082h185z" />
<glyph unicode="&#x449;" d="M303 1082v-931h208v931h185v-931h154v1h54v930h185v-930h87l-18 -473h-165v321h-875v1082h185z" />
<glyph unicode="&#x44a;" d="M57 1082h485v-410h200q96 0 171 -25t126 -69t77.5 -105t26.5 -133t-26.5 -134t-77.5 -107.5t-126 -72t-171 -26.5h-385v930h-300v152zM542 521v-370h200q58 0 98.5 15t66.5 40.5t38 58.5t12 68q0 34 -12 67.5t-38 60t-67 43.5t-98 17h-200z" />
<glyph unicode="&#x44b;" d="M329 672h99q87 0 154.5 -25t113 -69.5t69 -105.5t23.5 -132t-23.5 -133t-69 -108t-112.5 -72.5t-155 -26.5h-284v1082h185v-410zM1087 0h-185v1082h185v-1082zM329 521v-370h99q47 0 80 15.5t53.5 41t30 58t9.5 67.5q0 33 -9.5 66.5t-30 60.5t-53.5 44t-80 17h-99z" />
<glyph unicode="&#x44c;" d="M350 672h331q97 0 172.5 -24.5t127.5 -68.5t79.5 -105t27.5 -134q0 -72 -27 -134.5t-79 -108t-128 -71.5t-173 -26h-516v1082h185v-410zM350 521v-370h331q58 0 100 15t69 40t39.5 58t12.5 69q0 35 -13 68.5t-40 60t-68.5 43t-99.5 16.5h-331z" />
<glyph unicode="&#x44d;" d="M572 950q-50 0 -98 -16t-85.5 -44.5t-60.5 -67t-23 -84.5h-176q0 73 37 139t98.5 116t141.5 79.5t166 29.5q127 0 223 -44t159.5 -118t95.5 -172t32 -206v-42q0 -108 -32 -206t-96 -172.5t-159.5 -118t-222.5 -43.5q-96 0 -177 30t-140 82.5t-92.5 124t-33.5 154.5h176 q0 -50 21 -94t57 -76.5t84.5 -51.5t104.5 -19q84 0 143 29.5t97.5 78t58 110.5t24.5 127h-429v152h427q-6 63 -27 121t-59 103t-96 72t-139 27z" />
<glyph unicode="&#x44e;" d="M298 623h130q7 102 32 189.5t70 152t109 101t149 36.5q93 0 162 -43t114 -118t67 -175.5t22 -214.5v-22q0 -114 -22 -214.5t-66.5 -174.5t-113 -117t-161.5 -43q-87 0 -152.5 37.5t-110.5 103.5t-69.5 156t-30.5 194h-129v-471h-185v1082h185v-459zM612 529 q0 -78 8 -150.5t28.5 -127.5t54.5 -88t87 -33q52 0 86.5 33t54.5 88t28.5 127.5t8.5 150.5v22q0 78 -8.5 150t-29 127.5t-55 88.5t-87.5 33q-52 0 -86 -33t-54 -88.5t-28 -127.5t-8 -150v-22z" />
<glyph unicode="&#x44f;" d="M1057 1082v-1082h-185v421h-336l-257 -421h-200l273 449q-104 38 -160 117.5t-56 185.5q0 72 28.5 132.5t81.5 104t130 68.5t173 25h508zM322 750q0 -34 12 -66t37.5 -56.5t63.5 -39.5t91 -15h346v359h-323q-57 0 -100 -15.5t-71 -41t-42 -58t-14 -67.5z" />
<glyph unicode="&#x450;" d="M652 -20q-114 0 -209.5 39t-163.5 109t-106 166t-38 209v42q0 131 42 234.5t111.5 175t158 109.5t181.5 38q117 0 204.5 -40.5t145.5 -112t86.5 -168.5t28.5 -210v-83h-773q3 -74 28.5 -139t70 -113.5t106.5 -76.5t137 -28q99 0 176 40t128 106l113 -88 q-27 -41 -67.5 -78.5t-93.5 -66.5t-120 -46.5t-146 -17.5zM628 950q-56 0 -106 -20.5t-90 -60t-67.5 -97t-38.5 -132.5h582v14q-3 54 -20.5 107t-51.5 95t-85.5 68t-122.5 26zM701 1240h-150l-248 266h223z" />
<glyph unicode="&#x451;" d="M652 -20q-114 0 -209.5 39t-163.5 109t-106 166t-38 209v42q0 131 42 234.5t111.5 175t158 109.5t181.5 38q117 0 204.5 -40.5t145.5 -112t86.5 -168.5t28.5 -210v-83h-773q3 -74 28.5 -139t70 -113.5t106.5 -76.5t137 -28q99 0 176 40t128 106l113 -88 q-27 -41 -67.5 -78.5t-93.5 -66.5t-120 -46.5t-146 -17.5zM628 950q-56 0 -106 -20.5t-90 -60t-67.5 -97t-38.5 -132.5h582v14q-3 54 -20.5 107t-51.5 95t-85.5 68t-122.5 26zM293 1397q0 45 27.5 75.5t81.5 30.5t82 -30.5t28 -75.5t-28 -75t-82 -30t-81.5 30t-27.5 75z M723 1395q0 45 27.5 76t81.5 31t82 -31t28 -76q0 -44 -28 -74.5t-82 -30.5t-81.5 30.5t-27.5 74.5z" />
<glyph unicode="&#x452;" d="M614 1209h-263v-288q58 85 143 132.5t191 48.5q85 0 154.5 -24.5t118.5 -76.5t75.5 -131.5t26.5 -188.5v-227h1v-543q0 -168 -84.5 -258t-238.5 -90q-32 0 -59 3.5t-57 13.5l15 148q8 -3 22 -5.5t29 -4t28.5 -2.5t21.5 -1q66 0 102 52.5t36 143.5v89h-1v683 q0 133 -63.5 198t-181.5 64q-89 0 -161.5 -43.5t-117.5 -115.5v-786h-185v1209h-189v151h189v176h185v-176h263v-151z" />
<glyph unicode="&#x453;" d="M1066 929h-697v-929h-186v1082h883v-153zM709 1481h224l-268 -266h-140z" />
<glyph unicode="&#x454;" d="M635 130q50 0 97.5 16t84.5 44.5t59.5 67t23.5 83.5h175q-1 -72 -37.5 -137.5t-97.5 -115t-140 -79t-165 -29.5q-123 0 -215 44t-153.5 118.5t-92.5 172t-31 205.5v42q0 107 31 205t92.5 172.5t153.5 118.5t215 44q96 0 176.5 -30.5t139 -83t91.5 -124.5t33 -154h-175 q-1 49 -21.5 92.5t-55.5 76.5t-83.5 52t-104.5 19q-78 0 -133 -28.5t-91.5 -75t-55.5 -107t-24 -123.5h410v-152h-410q5 -64 24 -124.5t55 -107t91.5 -74.5t133.5 -28z" />
<glyph unicode="&#x455;" d="M893 287q0 33 -13 59.5t-44 48.5t-82 40.5t-127 33.5q-93 19 -169.5 46t-131 64.5t-84.5 88t-30 117.5q0 66 31 123.5t87 100.5t133.5 68t170.5 25q100 0 180 -26t136 -72t86.5 -107.5t30.5 -132.5h-185q0 35 -18 68.5t-50 59.5t-77.5 42t-102.5 16q-59 0 -103.5 -13 t-74 -35t-44.5 -51t-15 -60q0 -32 12 -57t41.5 -45t79 -36t125.5 -31q100 -21 179 -48.5t133 -66t82.5 -89.5t28.5 -118q0 -72 -32.5 -131t-90.5 -101t-139 -65t-177 -23q-110 0 -196 29.5t-145.5 78t-91 112.5t-31.5 133h185q4 -57 30.5 -96t66 -63t87.5 -34t95 -10 q117 0 185 43t69 114z" />
<glyph unicode="&#x456;" d="M203 1082h553v-922h353v-160h-906v160h368v761h-368v161zM547 1366q0 46 27.5 77.5t83.5 31.5q55 0 83 -31.5t28 -77.5q0 -45 -28 -75t-83 -30q-56 0 -83.5 30t-27.5 75z" />
<glyph unicode="&#x457;" d="M203 1082h553v-922h353v-160h-906v160h368v761h-368v161zM339 1375q0 45 27.5 75.5t81.5 30.5t82 -30.5t28 -75.5t-28 -75t-82 -30t-81.5 30t-27.5 75zM769 1373q0 45 27.5 76t81.5 31t82 -31t28 -76q0 -44 -28 -74.5t-82 -30.5t-81.5 30.5t-27.5 74.5z" />
<glyph unicode="&#x458;" d="M299 1082h546v-1089q0 -104 -28.5 -184t-83 -134.5t-133 -83t-178.5 -28.5q-57 0 -106.5 3.5t-104.5 13.5l13 152q17 -3 43 -5.5t52.5 -4t51 -2t38.5 -0.5q52 0 98 13.5t80 45.5t53.5 84.5t19.5 129.5v928h-361v161zM634 1367q0 45 27 76.5t83 31.5t84 -31.5t28 -76.5 t-28 -75.5t-84 -30.5t-83 30.5t-27 75.5z" />
<glyph unicode="&#x459;" d="M776 1082v-412h66q87 0 154 -25t112 -69.5t68.5 -105t23.5 -132.5q0 -71 -23.5 -132.5t-68.5 -107t-112 -72t-154 -26.5h-251v929h-194v-310q0 -146 -15.5 -261t-52 -194.5t-96.5 -121.5t-150 -42h-45l4 155l30 1q41 0 68 30.5t43 89.5t22.5 145t6.5 198v463h564z M776 518v-369h66q47 0 79.5 17.5t53 44.5t29.5 61t9 68q0 33 -9 65t-29.5 57t-53 40.5t-79.5 15.5h-66z" />
<glyph unicode="&#x45a;" d="M315 673h249v409h185v-413h83q82 0 145.5 -25t106 -69.5t64.5 -105t22 -131.5t-22 -132.5t-64.5 -107t-106 -72t-145.5 -26.5h-268v522h-249v-522h-185v1082h185v-409zM749 518v-369h83q42 0 71 17.5t47 44.5t26 61t8 68q0 33 -8 65t-26 57t-47 40.5t-71 15.5h-83z" />
<glyph unicode="&#x45b;" d="M665 1214h-307v-293q58 85 143 132.5t191 48.5q85 0 154.5 -24.5t118.5 -76.5t75.5 -131.5t26.5 -188.5v-681h-185v683q0 133 -63.5 198t-181.5 64q-89 0 -161.5 -43.5t-117.5 -115.5v-786h-185v1214h-145v151h145v171h185v-171h307v-151z" />
<glyph unicode="&#x45c;" d="M525 461h-176v-461h-185v1082h185v-458h160l403 458h225l-464 -521l500 -561h-235zM633 1481h224l-268 -266h-140z" />
<glyph unicode="&#x45d;" d="M878 1082h185v-1082h-185v798l-529 -798h-184v1082h184v-799zM682 1218h-150l-248 266h223z" />
<glyph unicode="&#x45e;" d="M572 384l48 -131l330 829h207l-549 -1249q-19 -42 -48.5 -89t-71.5 -87t-98 -67t-129 -27q-13 0 -29 1.5t-32 4t-30 5.5t-23 5l30 151q7 0 19 -1t25 -2t25 -1.5t19 -0.5q38 0 69.5 21t56 50t42 60t27.5 51l74 144l-466 1031h207zM932 1524q0 -59 -21 -108.5t-60 -84.5 t-94 -54.5t-123 -19.5q-69 0 -124 19.5t-94 54.5t-60.5 84.5t-21.5 108.5h150q0 -30 9 -57.5t27 -47.5t46 -32t68 -12q39 0 66.5 12t45.5 32t27 47.5t9 57.5h150z" />
<glyph unicode="&#x45f;" d="M350 1082v-931h528v931h185v-1082h-354v-356h-185v356h-359v1082h185z" />
<glyph unicode="&#x460;" d="M1150 1456l1 -1138q0 -82 -21.5 -145t-60.5 -106t-93.5 -65t-120.5 -22q-78 0 -136 37t-90 110q-32 -72 -90 -109.5t-135 -37.5q-67 0 -121.5 22t-93.5 65t-60.5 106t-21.5 145l1 1138h184l1 -1138q0 -88 29.5 -138t81.5 -50q60 0 94.5 50t34.5 138l1 1138h191v-1138 q0 -88 34.5 -138t95.5 -50q52 0 81 50t29 138l1 1138h184z" />
<glyph unicode="&#x461;" d="M1146 1083v-767q0 -82 -21.5 -145t-61 -105.5t-94.5 -64.5t-121 -22q-78 0 -136.5 37t-91.5 110q-32 -72 -90 -109.5t-136 -37.5q-67 0 -122 22t-94 64.5t-61 105.5t-22 145l1 767h185v-767q0 -88 30 -137t83 -49q60 0 95.5 49t35.5 137v767h191l1 -767q0 -88 35 -137 t96 -49q52 0 82.5 49t30.5 137v767h185z" />
<glyph unicode="&#x462;" d="M593 1104h-240v-247h266q116 0 206.5 -30t152.5 -85.5t94.5 -133.5t32.5 -175q0 -96 -32.5 -176t-94.5 -137t-152.5 -88.5t-206.5 -31.5h-451v1104h-212v151h212v201h185v-201h240v-151zM353 706v-555h266q78 0 134.5 23t93.5 62t54.5 90.5t17.5 108.5q0 56 -17.5 105.5 t-54.5 86t-93.5 58t-134.5 21.5h-266z" />
<glyph unicode="&#x463;" d="M727 1076h-322v-404h275q97 0 172 -24.5t126.5 -69t78.5 -105.5t27 -133t-27 -134t-78.5 -108t-126.5 -72t-172 -26h-460v1076h-192v152h192v332h185v-332h322v-152zM405 521v-370h275q58 0 99 15t67.5 40.5t39 58t12.5 68.5q0 34 -12.5 68t-39 60.5t-67.5 43t-99 16.5 h-275z" />
<glyph unicode="&#x464;" d="M309 832h150v99q0 129 25 230.5t72.5 171.5t116 107t155.5 37q81 0 142 -29.5t103.5 -84t67 -132.5t31.5 -174h-167q-5 61 -17 110.5t-33 85t-52 54.5t-75 19q-47 0 -81.5 -27t-57 -77.5t-34 -123.5t-11.5 -165v-101h282v-151h-282v-155q0 -93 11.5 -166.5t34 -124 t57 -77.5t81.5 -27q44 0 75 18t52 51.5t32.5 82t17.5 110.5h167q-7 -88 -31.5 -163.5t-67 -131t-103.5 -86.5t-142 -31q-87 0 -155.5 37t-116 106.5t-72.5 171t-25 230.5v155h-150v-681h-184v1456h184v-624z" />
<glyph unicode="&#x465;" d="M967 464h-299q2 -66 12.5 -126t31.5 -106.5t54.5 -74t80.5 -27.5q30 0 55 13.5t43.5 37.5t29 55.5t11.5 67.5h175q0 -64 -25 -122.5t-67.5 -103.5t-100 -71.5t-121.5 -26.5q-89 0 -155.5 37.5t-112 103t-69.5 153.5t-27 190h-143v-464h-185v1082h185v-467h143 q2 102 26 190.5t69.5 154.5t112.5 104t156 38q71 0 129 -28t99 -76t63.5 -112.5t22.5 -138.5h-175q0 40 -9.5 77t-27.5 65t-43.5 44.5t-58.5 16.5q-47 0 -80.5 -28t-55 -75t-32 -107.5t-11.5 -124.5h299v-151z" />
<glyph unicode="&#x466;" d="M869 440h-161v-440h-185v440h-148l-147 -440h-189l506 1456h160l497 -1456h-189zM428 601h388l-192 587z" />
<glyph unicode="&#x467;" d="M842 297h-128v-297h-185v297h-135l-118 -297h-189l452 1082h159l455 -1082h-190zM455 449h325l-139 343l-24 82l-25 -82z" />
<glyph unicode="&#x468;" d="M929 468h-70v-468h-148v468h-69l-104 -468h-189l117 468h-168v-468h-185v1456h185v-827h209l208 827h159l338 -1456h-188zM677 629h219l-104 516z" />
<glyph unicode="&#x469;" d="M939 293h-72v-293h-157v293h-79l-93 -293h-189l99 293h-151v-293h-185v1082h185v-628h205l213 628h159l339 -1082h-189zM682 454h211l-101 348z" />
<glyph unicode="&#x46a;" d="M86 0l-1 427q0 98 24.5 167.5t71 114t114 65t153.5 20.5h3l-337 662h991l-309 -662q86 -1 153 -21.5t113.5 -65t70.5 -113.5t24 -167v-427h-185v427q0 61 -11 102t-33 66t-55.5 36t-79.5 11h-68l-9 -20v-622h-185v637l-3 5h-80q-46 0 -79.5 -11t-55 -36t-32 -66 t-10.5 -102v-427h-185zM624 830l204 474h-430z" />
<glyph unicode="&#x46b;" d="M105 0v219q0 99 21.5 170.5t63 117.5t101 69.5t134.5 26.5l-282 479h944l-283 -480q73 -5 130 -29t97 -70.5t61 -116.5t21 -167v-219h-185l-1 219q0 67 -10 111.5t-30 71.5t-50.5 38.5t-72.5 11.5h-49l-10 -17v-435h-186v443l-5 9h-61q-42 0 -72.5 -11.5t-50.5 -38.5 t-30 -71.5t-10 -111.5v-219h-185zM612 604h5l178 326h-362z" />
<glyph unicode="&#x46c;" d="M911 792q120 -5 184 -75.5t64 -216.5v-500h-153l-1 500q0 75 -25.5 107.5t-86.5 32.5h-35l-7 -20v-620h-153v617l-8 23h-38h-2h-4q-57 -2 -81.5 -34.5t-24.5 -105.5v-500h-153l-1 500q0 80 20 140h-155v-640h-171v1456h171v-664h385l-235 664h745zM774 893l129 411h-258z " />
<glyph unicode="&#x46d;" d="M935 592q109 -11 166 -80t57 -209v-303h-153l-1 303q0 76 -26.5 108t-89.5 32h-18l-12 -29h-6v-414h-154v421l-10 22h-32h-4h-2q-57 -2 -83 -34t-26 -106v-303h-153l-1 303q0 81 21 140h-156v-443h-171v1082h171v-487h370l-210 487h734zM779 620l124 319h-248z" />
<glyph unicode="&#x46e;" d="M540 823q159 1 235.5 66t76.5 178q0 50 -18.5 93.5t-55.5 75.5t-91.5 50t-126.5 18h-306v152h306q102 0 189.5 -26.5t151.5 -77t100.5 -123.5t36.5 -166q0 -53 -17.5 -100t-49.5 -87t-78 -72t-103 -54q128 -40 199 -126t71 -218q0 -102 -37 -181.5t-101.5 -133.5 t-152.5 -82t-189 -28h-53q-78 0 -113.5 -31t-35.5 -82q0 -40 16.5 -70.5t41.5 -52.5t52.5 -37.5t50.5 -25.5l-74 -124q-47 20 -93.5 49.5t-84 69.5t-61 90t-24.5 110q0 67 24 115t67.5 79t104.5 46t136 15h46q66 0 120.5 20t93 55.5t59.5 85t21 109.5q0 69 -22.5 120 t-65.5 84t-105 49.5t-141 16.5h-141v151h141zM572 1756l151 152h160v-18l-254 -248h-114l-251 245v21h157z" />
<glyph unicode="&#x46f;" d="M556 617q137 0 203.5 42.5t65.5 117.5q0 33 -16.5 61t-48.5 48t-78 31.5t-106 11.5h-300v153h300q91 0 170.5 -20.5t138 -60.5t92.5 -97.5t34 -130.5q0 -75 -52 -134t-143 -94q103 -31 160 -91.5t57 -149.5q0 -78 -34 -138t-93 -101t-139 -62.5t-171 -21.5h-48 q-78 0 -114 -31t-35 -82q0 -40 16.5 -70.5t41.5 -52.5t52.5 -37.5t50.5 -25.5l-75 -124q-46 20 -92.5 49.5t-84 69.5t-61.5 90t-25 110q0 67 24 115t67.5 79t105 46t136.5 15h41q55 0 101.5 12t79.5 34t52 53t19 69q0 43 -20.5 74.5t-58.5 51.5t-92 30t-121 10h-141v151h141 zM580 1414l151 152h160v-18l-254 -248h-114l-251 245v21h157z" />
<glyph unicode="&#x470;" d="M711 479q55 12 99.5 40t76 73t49 107.5t17.5 142.5v614h185v-614q0 -118 -31.5 -209.5t-87.5 -156.5t-135 -103t-173 -49v-324h-185v324q-95 11 -173 49t-134 103t-87 156.5t-31 209.5v614h185v-614q0 -80 17 -142t48.5 -107t76 -73t98.5 -40v976h185v-977z" />
<glyph unicode="&#x471;" d="M700 1082v-942q73 18 124 61t82.5 101.5t46 127.5t14.5 137q-2 134 -26.5 262t-62.5 253h195q32 -95 55.5 -223t23.5 -292q0 -107 -24 -206t-77.5 -178t-139.5 -131.5t-211 -66.5v-457h-185v459q-99 14 -176.5 58t-131.5 120t-82 183.5t-28 247.5v486h185v-488 q0 -103 16.5 -181t47 -133.5t73.5 -89t96 -48.5v940h185z" />
<glyph unicode="&#x472;" d="M1114 644q-1 -78 -13.5 -157.5t-38.5 -153.5t-66.5 -138t-96.5 -112t-128.5 -75.5t-162.5 -27.5t-162.5 27.5t-128.5 75.5t-97 112.5t-67.5 138.5t-39.5 153t-14 157v166q1 78 13.5 157.5t39 153.5t67 138.5t96.5 113t128.5 76t162.5 27.5t163 -27.5t129 -75.5 t96.5 -112.5t67 -138.5t39 -154t13.5 -158v-166zM281 801h650v11q-1 52 -7 108.5t-20.5 112t-38.5 106t-60 89t-85 61t-114 22.5q-64 0 -113 -23t-85 -61.5t-60 -89t-38.5 -106t-21 -112t-7.5 -107.5v-11zM931 649h-650v-5q1 -51 7.5 -108t21.5 -112.5t39 -106.5t60 -89.5 t85 -61.5t114 -23t114.5 23t85 61.5t59 89t38 106t20 112.5t6.5 109v5z" />
<glyph unicode="&#x473;" d="M93 551q0 117 34 217.5t97.5 174.5t154.5 116.5t205 42.5q115 0 206.5 -42.5t155 -116.5t97.5 -174.5t34 -217.5v-22q0 -117 -34 -217t-97.5 -174t-154.5 -116t-205 -42q-115 0 -206.5 42t-155 116t-97.5 174t-34 217v22zM586 130q69 0 122.5 26.5t91.5 72.5t60 107.5 t29 131.5h-608q7 -70 29 -131.5t60.5 -107.5t92 -72.5t123.5 -26.5zM584 950q-68 0 -121 -26t-91 -71t-61 -105.5t-30 -128.5h607q-8 68 -30.5 128.5t-60.5 105.5t-91.5 71t-121.5 26z" />
<glyph unicode="&#x474;" d="M583 374l34 -130l34 129l258 809q24 77 52 132t63 91t79 53t100 17l46 -1l-1 -171h-13q-27 0 -48 -8t-38.5 -25.5t-31.5 -45t-28 -65.5l-387 -1159h-170l-506 1456h209z" />
<glyph unicode="&#x475;" d="M539 316l24 -101l25 101l176 543q42 129 107.5 186t142.5 56q28 0 54 -3.5t52 -20.5l-21 -148q-6 3 -17.5 5.5t-25.5 2.5q-33 0 -63 -26t-44 -67l-317 -844h-141l-410 1082h190z" />
<glyph unicode="&#x476;" d="M583 374l34 -130l34 129l258 809q24 77 52 132t63 91t79 53t100 17l46 -1l-1 -171h-13q-27 0 -48 -8t-38.5 -25.5t-31.5 -45t-28 -65.5l-387 -1159h-170l-506 1456h209zM569 1592h-169l-306 266h225zM830 1592h-150l-246 266h207z" />
<glyph unicode="&#x477;" d="M539 316l24 -101l25 101l176 543q42 129 107.5 186t142.5 56q28 0 54 -3.5t52 -20.5l-21 -148q-6 3 -17.5 5.5t-25.5 2.5q-33 0 -63 -26t-44 -67l-317 -844h-141l-410 1082h190zM528 1296h-169l-306 266h225zM789 1296h-150l-246 266h207z" />
<glyph unicode="&#x478;" d="M650 487q0 -115 -19.5 -208.5t-57.5 -160t-94.5 -102.5t-129.5 -36q-69 0 -121.5 36t-88 102.5t-53 160t-17.5 208.5v481q0 115 17.5 209t53 160.5t88 102.5t121.5 36q73 0 129 -36t94.5 -102.5t58 -160.5t19.5 -209v-481zM926 627l15 -163l105 618h164l-241 -1250 q-9 -39 -26 -85t-44.5 -85.5t-67.5 -66t-97 -26.5q-10 0 -22.5 1.5t-25.5 4t-25 5.5t-19 5l4 144q6 -1 15.5 -2t19.5 -2t19.5 -1.5t15.5 -0.5q29 0 49.5 20.5t34 49.5t22 60t13.5 52l24 94l-159 1083h164zM465 1007q0 72 -6 129.5t-19.5 98t-36 62t-54.5 21.5t-53.5 -21.5 t-34.5 -62t-19 -98t-6 -129.5v-557q0 -72 6 -130t19 -98.5t34.5 -62.5t53.5 -22q33 0 55 22t35.5 62.5t19.5 98.5t6 130v557z" />
<glyph unicode="&#x479;" d="M55 552q0 117 17.5 217.5t56 174.5t98.5 116t145 42q86 0 147 -42t99.5 -116t56.5 -174.5t18 -217.5v-23q0 -117 -18 -217.5t-56.5 -174t-99 -115.5t-145.5 -42q-86 0 -146.5 42t-98.5 115.5t-56 174t-18 217.5v23zM926 627l13 -179l108 634h164l-241 -1250 q-9 -39 -26 -85t-44.5 -85.5t-67.5 -66t-97 -26.5q-10 0 -22.5 1.5t-25.5 4t-25 5.5t-19 5l4 144q6 -1 15.5 -2t19.5 -2t19.5 -1.5t15.5 -0.5q29 0 49.5 20.5t34 49.5t21.5 60t14 52l24 94l-159 1083h164zM240 529q0 -80 4 -152t18 -127t40.5 -87.5t71.5 -32.5t71.5 32.5 t40 87.5t17.5 127t4 152v23q0 78 -4 150t-18 127t-41 88t-72 33q-44 0 -70.5 -33t-40 -88t-17.5 -127t-4 -150v-23z" />
<glyph unicode="&#x47a;" d="M706 1203h-185v386h185v-386zM706 -141h-185v395h185v-395zM1121 644q-1 -78 -13.5 -157.5t-38.5 -153.5t-66.5 -138t-96.5 -112t-128.5 -75.5t-162.5 -27.5t-162.5 27.5t-128.5 75.5t-97 112.5t-67.5 138.5t-39.5 153t-14 157v166q1 78 13.5 157.5t39 153.5t67 138.5 t96.5 113t128.5 76t162.5 27.5t163 -27.5t129 -75.5t96.5 -112.5t67 -138.5t39 -154t13.5 -158v-166zM938 812q-1 52 -7 108.5t-20.5 112t-38.5 106t-60 89t-85 61t-114 22.5q-64 0 -113 -23t-85 -61.5t-60 -89t-38.5 -106t-21 -112t-7.5 -107.5v-168q1 -51 7.5 -108 t21.5 -112.5t39 -106.5t60 -89.5t85 -61.5t114 -23t114.5 23t85 61.5t59 89t38 106t20 112.5t6.5 109v168z" />
<glyph unicode="&#x47b;" d="M708 838h-186v389h186v-389zM708 -159h-186v407h186v-407zM122 551q0 117 34 217.5t97.5 174.5t154.5 116.5t205 42.5q115 0 206.5 -42.5t155 -116.5t97.5 -174.5t34 -217.5v-22q0 -117 -34 -217t-97.5 -174t-154.5 -116t-205 -42q-115 0 -206.5 42t-155 116t-97.5 174 t-34 217v22zM307 529q0 -80 19 -152.5t57.5 -127.5t96.5 -87t135 -32q76 0 133.5 32t96 87t57.5 127.5t19 152.5v22q0 79 -19.5 151.5t-58 127.5t-96 87.5t-134.5 32.5t-134 -32.5t-95.5 -87.5t-57.5 -127.5t-19 -151.5v-22z" />
<glyph unicode="&#x47c;" d="M802 1455q78 0 143 -25.5t111.5 -75.5t72.5 -123.5t26 -169.5v-725q0 -87 -23 -153.5t-64.5 -111.5t-100 -68.5t-128.5 -23.5q-76 0 -133.5 36t-89.5 106q-33 -70 -90.5 -106t-132.5 -36q-71 0 -129 23.5t-99.5 68.5t-64.5 111.5t-23 153.5v725q0 96 25.5 169.5t72 123.5 t111.5 75.5t144 25.5v-151q-78 -1 -122.5 -64t-44.5 -179v-725q0 -97 34.5 -151.5t95.5 -54.5q60 0 95 50t35 138v508h186v-508q0 -88 35 -138t95 -50t95 54.5t36 151.5v725q-1 116 -46 179t-122 64v151zM989 1747v-127h-42q-73 0 -131 20t-106 43.5t-88.5 43t-78.5 19.5 q-50 0 -78.5 -27t-28.5 -82l-1 -18h-127v36q0 110 61 164t170 54q34 0 65.5 -9.5t62 -23t61.5 -30t65 -30.5t72.5 -23.5t83.5 -9.5h40zM509 1379q33 40 50 75.5t17 73.5v96h139v-102q0 -29 -11 -58.5t-29 -56t-41.5 -49t-48.5 -35.5z" />
<glyph unicode="&#x47d;" d="M813 1101q74 0 135.5 -25t106 -74.5t69 -122.5t24.5 -169v-378q0 -87 -21.5 -153t-61 -110.5t-94.5 -67t-122 -22.5q-76 0 -133 35t-90 105q-33 -70 -90.5 -105t-133.5 -35q-67 0 -122 22.5t-94.5 67t-61 110.5t-21.5 153v378q0 96 24.5 169t68.5 122.5t105.5 74.5 t136.5 25v-151q-69 -1 -109 -61.5t-40 -178.5v-378q0 -97 29.5 -149.5t83.5 -52.5q60 0 95 48t36 136v269h186v-269q0 -88 35 -136t95 -48q53 0 83.5 52.5t30.5 149.5v378q0 118 -40.5 178.5t-109.5 61.5v151zM1007 1376v-127h-43q-74 0 -132 20t-106.5 43.5t-89 43 t-79.5 19.5q-50 0 -79 -27t-29 -82l-1 -18h-127v37q0 110 61.5 163.5t170.5 53.5q52 0 97.5 -19.5t93 -43t101.5 -43.5t122 -20h40zM522 1007q33 40 50 75.5t17 73.5v96h139v-102q0 -29 -11 -58.5t-29 -56t-41.5 -49t-48.5 -35.5z" />
<glyph unicode="&#x47e;" d="M283 1796h720l1 -108h-285v-125h-168v125h-268v108zM1156 1456l1 -1138q0 -82 -21.5 -145t-60.5 -106t-93.5 -65t-120.5 -22q-78 0 -136 37t-90 110q-32 -72 -90 -109.5t-135 -37.5q-67 0 -121.5 22t-93.5 65t-60.5 106t-21.5 145l1 1138h184l1 -1138q0 -88 29.5 -138 t81.5 -50q60 0 94.5 50t34.5 138l1 1138h191v-1138q0 -88 34.5 -138t95.5 -50q52 0 81 50t29 138l1 1138h184z" />
<glyph unicode="&#x47f;" d="M260 1456h726l1 -108h-288v-127h-168v127h-271v108zM1146 1083v-767q0 -82 -21.5 -145t-61 -105.5t-94.5 -64.5t-121 -22q-78 0 -136.5 37t-91.5 110q-32 -72 -90 -109.5t-136 -37.5q-67 0 -122 22t-94 64.5t-61 105.5t-22 145l1 767h185v-767q0 -88 30 -137t83 -49 q60 0 95.5 49t35.5 137v767h191l1 -767q0 -88 35 -137t96 -49q52 0 82.5 49t30.5 137v767h185z" />
<glyph unicode="&#x480;" d="M810 -382h-185v367q-110 14 -197.5 67.5t-149 136t-94.5 189t-33 227.5v247q0 131 35 245t100 198.5t157 133t206 48.5q110 0 198 -34.5t149.5 -98.5t95 -153.5t33.5 -199.5h-185q-1 75 -20 137t-55.5 105.5t-90.5 67.5t-125 24q-75 0 -133.5 -38.5t-98.5 -103 t-60.5 -150t-20.5 -179.5v-249q0 -95 24 -181t70.5 -151.5t114.5 -104t156 -38.5h109v-512z" />
<glyph unicode="&#x481;" d="M765 -382h-185v368q-95 16 -167.5 64.5t-121.5 120.5t-74.5 161.5t-25.5 187.5v42q0 107 31 205t91 172.5t148 118.5t202 44q91 0 168 -30.5t133 -83.5t87.5 -124.5t31.5 -154.5h-175q0 49 -19 93t-51.5 77t-77.5 52t-97 19q-76 0 -130 -34.5t-89 -90t-51.5 -125 t-16.5 -138.5v-42q0 -71 16 -140.5t51 -125t89 -90t131 -34.5h102v-512z" />
<glyph unicode="&#x482;" d="M602 446l289 -172l-68 -123l-291 170l-182 -321h-168l225 398l-289 171l68 123l293 -171l205 365l-290 171l70 125l291 -171l188 331h165l-231 -408l293 -171l-72 -122l-288 170z" />
<glyph unicode="&#x483;" horiz-adv-x="0" d="M375 1315v-125l-166 1l1 233h539l-1 108l165 -1v-216h-538z" />
<glyph unicode="&#x484;" horiz-adv-x="0" d="M294 1430q52 0 97 9.5t84.5 23.5t75.5 30.5t71.5 30.5t71.5 23.5t76 9.5q110 0 174 -54t64 -164v-36h-128v18q0 56 -31.5 82t-82.5 26q-45 0 -92 -19.5t-102.5 -43t-123 -43t-152.5 -19.5h-44v126h42z" />
<glyph unicode="&#x485;" horiz-adv-x="0" d="M451 1500v123h180l-1 -140l60 -116l-78 -65z" />
<glyph unicode="&#x486;" horiz-adv-x="0" d="M648 1302l-76 65l58 116v140h180v-123z" />
<glyph unicode="&#x488;" horiz-adv-x="0" d="M468 1267q0 41 14.5 75.5t42 59.5t66.5 39t87 14t87 -14t66.5 -39t42.5 -59.5t15 -75.5h-112q0 20 -5.5 38t-17.5 32t-30.5 22.5t-45.5 8.5t-45.5 -8.5t-30 -22.5t-16.5 -32t-5 -38h-113zM1059 990q0 41 15 75.5t42 59.5t66 39t87 14t87 -14t67 -39t43 -59.5t15 -75.5 h-113q0 20 -5.5 38t-17.5 32t-30.5 22.5t-45.5 8.5q-26 0 -44.5 -8.5t-30 -22.5t-16.5 -32t-5 -38h-114zM1246 487q0 41 15 75.5t42 59.5t66 39t87 14t87 -14t66.5 -39t42.5 -59.5t15 -75.5h-112q0 20 -5.5 38t-17.5 32t-30.5 22.5t-45.5 8.5q-26 0 -44.5 -8.5t-30 -22.5 t-17 -32t-5.5 -38h-113zM1049 -32q0 41 15 75.5t42 59.5t66 39t87 14t87 -14t66.5 -39t42.5 -59.5t15 -75.5h-112q0 20 -5.5 38t-17.5 32t-30.5 22.5t-45.5 8.5q-26 0 -44.5 -8.5t-30 -22.5t-17 -32t-5.5 -38h-113zM473 -316q0 42 14.5 76.5t42 59t66.5 38.5t87 14t87 -14 t66.5 -38.5t42.5 -59t15 -76.5h-112q0 20 -5.5 38.5t-17.5 32.5t-30.5 22t-45.5 8q-26 0 -44.5 -8t-30 -22t-17 -32.5t-5.5 -38.5h-113zM-105 990q0 41 15 75.5t42.5 59.5t66.5 39t87 14t87 -14t66.5 -39t42.5 -59.5t15 -75.5h-112q0 20 -5.5 38t-17.5 32t-30.5 22.5 t-45.5 8.5t-45.5 -8.5t-30 -22.5t-16.5 -32t-5 -38h-114zM-281 487q0 41 15 75.5t42.5 59.5t66 39t86.5 14t87 -14t66.5 -39t42.5 -59.5t15 -75.5h-112q0 20 -5.5 38t-17.5 32t-30.5 22.5t-45.5 8.5q-26 0 -44 -8.5t-30 -22.5t-17.5 -32t-5.5 -38h-113zM-115 -32 q0 41 15 75.5t42.5 59.5t66 39t86.5 14t87 -14t67 -39t43 -59.5t15 -75.5h-113q0 20 -5.5 38t-17.5 32t-30.5 22.5t-45.5 8.5q-26 0 -44.5 -8.5t-29.5 -22.5t-16.5 -32t-5.5 -38h-114z" />
<glyph unicode="&#x489;" horiz-adv-x="0" d="M1105 -60l11 -14l-122 -339h-96l70 353h137zM910 1126l-12 14l122 338h96l-70 -352h-136zM1588 631l13 12l333 -124v-98l-346 71v139zM424 433l-13 -12l-333 124v98l346 -71v-139zM1348 1002l2 16l321 153l68 -68l-294 -200zM664 21l-2 -17l-320 -153l-69 69l294 200z M524 860l-17 2l-148 326l65 69l198 -299zM1486 161l17 -2l149 -325l-66 -71l-197 299z" />
<glyph unicode="&#x48a;" d="M881 1456h185v-1456h-185l1 1073l-535 -1073h-185v1456h185l-1 -1072zM906 1854q0 -59 -21 -108.5t-60 -84.5t-94 -54.5t-123 -19.5q-69 0 -124 19.5t-94 54.5t-60.5 84.5t-21.5 108.5h150q0 -30 9 -57.5t27 -47.5t46 -32t68 -12q39 0 66.5 12t45.5 32t27 47.5t9 57.5 h150zM1251 5q0 -47 -11.5 -98.5t-34 -102t-54.5 -96.5t-74 -82l-115 63q48 70 68 149t20 164v179h201v-176z" />
<glyph unicode="&#x48b;" d="M878 1082h185v-1082h-185v798l-529 -798h-184v1082h184v-799zM901 1523q0 -59 -21 -108.5t-60 -84.5t-94 -54.5t-123 -19.5q-69 0 -124 19.5t-94 54.5t-60.5 84.5t-21.5 108.5h150q0 -30 9 -57.5t27 -47.5t46 -32t68 -12q39 0 66.5 12t45.5 32t27 47.5t9 57.5h150z M1248 5q0 -47 -11.5 -98.5t-34 -102t-54.5 -96.5t-74 -82l-115 63q48 70 68 149t20 164v179h201v-176z" />
<glyph unicode="&#x48c;" d="M593 1104h-240v-247h266q116 0 206.5 -30t152.5 -85.5t94.5 -133.5t32.5 -175q0 -96 -32.5 -176t-94.5 -137t-152.5 -88.5t-206.5 -31.5h-451v1104h-212v151h212v201h185v-201h240v-151zM353 706v-555h266q78 0 134.5 23t93.5 62t54.5 90.5t17.5 108.5q0 56 -17.5 105.5 t-54.5 86t-93.5 58t-134.5 21.5h-266z" />
<glyph unicode="&#x48d;" d="M655 803h-305v-131h331q97 0 172.5 -24.5t127.5 -68.5t79.5 -105t27.5 -134q0 -72 -27 -134.5t-79 -108t-128 -71.5t-173 -26h-516v803h-147v151h147v128h185v-128h305v-151zM350 521v-370h331q58 0 100 15t69 40t39.5 58t12.5 69q0 35 -13 68.5t-40 60t-68.5 43 t-99.5 16.5h-331z" />
<glyph unicode="&#x48e;" d="M1073 467l-132 -70l-363 492l131 70zM376 584v-584h-185v1456h472q98 -2 185.5 -31t153.5 -84t104.5 -136t38.5 -186t-38.5 -185.5t-104.5 -135.5t-153.5 -84t-185.5 -30h-287zM376 736h287q64 1 118 20.5t94 55.5t62.5 87.5t22.5 117.5t-22.5 119t-62 90t-94 57 t-118.5 21h-287v-568z" />
<glyph unicode="&#x48f;" d="M1078 2l-112 -93l-363 373l113 94zM1087 529q0 -116 -28 -216.5t-82 -174.5t-133.5 -116t-181.5 -42q-99 0 -174.5 32t-129.5 92v-520h-185v1498h169l9 -118q54 67 130.5 102.5t177.5 35.5q104 0 184 -41t134 -114t82 -174.5t28 -222.5v-21zM902 550q0 79 -17.5 150.5 t-54 126t-92.5 86.5t-134 32q-89 0 -149.5 -41.5t-96.5 -106.5v-521q36 -64 96 -104.5t152 -40.5q77 0 133 32.5t92 87.5t53.5 127t17.5 151v21z" />
<glyph unicode="&#x490;" d="M1095 1304h-727v-1304h-186v1456h728v335h185v-487z" />
<glyph unicode="&#x491;" d="M1073 929h-705v-929h-186v1082h705v317h186v-470z" />
<glyph unicode="&#x492;" d="M634 684h-267v-684h-186v684h-184v151h184v621h891v-152h-705v-469h267v-151z" />
<glyph unicode="&#x493;" d="M632 479h-263v-479h-186v479h-188v151h188v452h883v-153h-697v-299h263v-151z" />
<glyph unicode="&#x494;" d="M1076 1304h-705v-470h184q142 0 252.5 -40t187 -114.5t116.5 -181.5t40 -241q0 -131 -30.5 -232.5t-90.5 -170.5t-148.5 -105.5t-203.5 -36.5l-2 147q81 0 136.5 28.5t89.5 80.5t49 125.5t15 163.5q-2 199 -103.5 307t-307.5 108h-184v-672h-186v1456h891v-152z" />
<glyph unicode="&#x495;" d="M1067 929h-697v-283h218q111 0 205.5 -32.5t164 -93t109 -149t39.5 -201.5q0 -58 -22 -129t-69 -137t-121 -117.5t-177 -70.5l-48 146q68 18 116 47.5t78 69t44 87.5t14 104q0 76 -25.5 135t-70.5 98.5t-105.5 60t-131.5 20.5h-218v-484h-186v1082h883v-153z" />
<glyph unicode="&#x496;" d="M763 651h-54v-651h-183v651h-62l-205 -651h-230l269 727l-230 729h215l174 -653h69v653h183v-653h62l173 653h216l-232 -727l270 -729h-229zM1275 -359h-185v513h185v-513z" />
<glyph unicode="&#x497;" d="M757 470h-58v-470h-185v470h-59l-215 -470h-223l297 563l-262 519h214l189 -448h59v448h185v-448h59l190 448h214l-264 -519l298 -563h-224zM1263 -359h-185v513h185v-513z" />
<glyph unicode="&#x498;" d="M615 818q159 1 236 68.5t77 179.5q0 55 -20.5 102t-61.5 82t-102 55t-143 20q-63 0 -119 -18.5t-97 -52t-65.5 -79.5t-24.5 -100h-185q0 93 39.5 167.5t107 126t156.5 79.5t188 28q115 0 209.5 -26t162 -78t104.5 -130t37 -180q-1 -103 -64.5 -185t-173.5 -130 q125 -42 192.5 -127t67.5 -214q0 -103 -40.5 -182.5t-112 -134t-169.5 -82.5t-213 -28q-95 0 -186.5 24.5t-163.5 76.5t-117 132.5t-45 191.5h186q0 -57 24 -107t67 -87t103 -58.5t132 -21.5q81 0 145.5 20t110 56t69.5 86t24 110q0 69 -22.5 118.5t-65.5 82t-105.5 48 t-141.5 15.5h-183v152h183zM688 -465h-185v513h185v-513z" />
<glyph unicode="&#x499;" d="M636 630q128 0 192 40.5t64 115.5q0 34 -17.5 64t-51 52.5t-83.5 35.5t-115 13q-58 0 -110 -13t-91.5 -35.5t-63 -54t-23.5 -68.5h-185q1 75 39.5 134.5t103 101t150 63.5t180.5 22q100 0 183 -20t143 -59.5t93 -98t33 -136.5q0 -75 -53 -135.5t-144 -95.5 q103 -31 160.5 -94t57.5 -158q0 -78 -36.5 -138t-100.5 -101.5t-150 -62.5t-186 -21q-60 0 -119.5 8.5t-113.5 26.5t-101 45.5t-81.5 65t-54.5 86t-20 107.5h185q0 -39 23 -73.5t64 -61t97 -42t121 -15.5q64 0 117 13.5t90.5 37.5t58 56t20.5 69q0 46 -19 78.5t-55 53 t-87 29.5t-114 9h-241v156h241zM711 -455h-185v513h185v-513z" />
<glyph unicode="&#x49a;" d="M525 659h-171v-659h-185v1456h185v-646h156l443 646h212l-495 -705l536 -751h-227zM1247 -352h-185v513h185v-513z" />
<glyph unicode="&#x49b;" d="M525 461h-176v-461h-185v1082h185v-458h160l403 458h225l-464 -521l500 -561h-235zM1210 -359h-185v513h185v-513z" />
<glyph unicode="&#x49c;" d="M1176 1456l-335 -687l379 -769h-231l-326 660h-54v-245h-149v245h-101v-660h-185v1456h185v-645h101v257h149v-257h54l297 645h216z" />
<glyph unicode="&#x49d;" d="M1113 1082l-338 -514l375 -568h-234l-278 461h-51v-194h-148v194h-90v-461h-186v1082h186v-458h90v213h148v-213h44l259 458h223z" />
<glyph unicode="&#x49e;" horiz-adv-x="1249" d="M545 659h-171v-659h-185v1129h-180v151h180v176h185v-176h272v-151h-272v-319h156l443 646h212l-495 -705l536 -751h-227z" />
<glyph unicode="&#x49f;" horiz-adv-x="1249" d="M518 505l-136 -131v-374h-186v1217h-209v151h209v168h186v-168h242v-151h-242v-621l121 130l355 356h225l-438 -451l505 -631h-235z" />
<glyph unicode="&#x4a0;" d="M661 659h-106v-659h-184v1304h-326v152h510v-646h98l286 646h211l-325 -705l365 -751h-226z" />
<glyph unicode="&#x4a1;" d="M700 461h-134v-461h-185v929h-325v153h510v-458h127l249 458h224l-329 -514l364 -568h-234z" />
<glyph unicode="&#x4a2;" d="M1087 0h-175v673h-597v-673h-174v1456h174v-626h597v626h175v-1456zM1192 -359h-185v513h185v-513z" />
<glyph unicode="&#x4a3;" d="M1063 0h-185v462h-528v-462h-185v1082h185v-469h528v469h185v-1082zM1200 -359h-185v513h185v-513z" />
<glyph unicode="&#x4a4;" d="M299 799h371v657h508v-152h-324v-1304h-184v647h-371v-647h-185v1456h185v-657z" />
<glyph unicode="&#x4a5;" d="M295 613h380v469h505v-153h-320v-929h-185v462h-380v-462h-185v1082h185v-469z" />
<glyph unicode="&#x4a6;" d="M737 833q107 -2 189.5 -43.5t138.5 -117.5t84.5 -181.5t28.5 -234.5t-24 -230t-72.5 -171t-120.5 -107t-168 -37l-2 147q58 0 97 29.5t62.5 82t33 126t9.5 160.5q-1 94 -16 170t-46 129.5t-79 83t-115 31.5v-670h-185v1304h-259v-1304h-184v1456h628v-623z" />
<glyph unicode="&#x4a7;" d="M717 645h8q93 0 171 -33t134 -95t87 -150t31 -197q-1 -38 -9 -82.5t-25 -90.5t-43.5 -90.5t-64 -82.5t-86.5 -66t-110 -41l-48 146q57 18 95.5 48t62 69.5t33.5 87.5t10 102q-1 73 -18 131.5t-48 98.5t-74.5 61.5t-97.5 21.5h-8v-483h-185v929h-231v-929h-185v1082h601 v-437z" />
<glyph unicode="&#x4a8;" d="M1104 -30q-82 1 -155 17.5t-136 47.5q-48 -27 -102.5 -41.5t-114.5 -14.5q-113 0 -204 51t-155 138t-98.5 203.5t-34.5 249.5v279q0 120 23.5 225t67 183t105.5 123.5t140 45.5l1 -158q-38 0 -66 -33t-47.5 -89.5t-29 -132t-9.5 -162.5v-281q0 -101 20 -189t59 -153.5 t96.5 -104t131.5 -38.5q17 0 33 2t32 6q-91 91 -139.5 217t-48.5 281v339q0 101 21.5 191t61.5 157t97.5 106t129.5 39t129.5 -38t97.5 -104.5t61.5 -156.5t21.5 -194v-360q-1 -140 -38.5 -260.5t-107.5 -208.5q35 -12 74 -18.5t83 -6.5v-157zM658 640q0 -128 36.5 -229.5 t105.5 -169.5q53 67 80 165.5t27 214.5v363q0 69 -7.5 130t-23 106t-39 70.5t-54.5 25.5q-32 0 -55 -27t-39 -72.5t-23.5 -105.5t-7.5 -127v-344z" />
<glyph unicode="&#x4a9;" d="M1163 -12q-90 1 -169 15.5t-148 42.5q-57 -32 -122.5 -49.5t-139.5 -17.5q-111 0 -201.5 45.5t-155 125t-100 187.5t-35.5 232v58q0 99 25 185.5t71 151t111 101.5t145 37v-158q-40 0 -71 -24.5t-52 -67t-32 -100t-11 -123.5v-60q0 -91 21 -170t60 -137.5t96 -92 t129 -33.5q47 0 91 12q-94 79 -144.5 187.5t-50.5 236.5v104q0 91 21.5 169t62 135.5t99.5 90t134 32.5t134.5 -35.5t100 -96.5t62 -142.5t21.5 -173.5v-105q0 -113 -33 -211t-95 -173q79 -21 176 -21v-157zM666 570q0 -105 40.5 -188.5t117.5 -140.5q51 57 78 136t28 173 v108q0 58 -8 110t-24.5 91.5t-41.5 63t-59 23.5t-58.5 -20.5t-40.5 -56.5t-24 -85t-8 -106v-108z" />
<glyph unicode="&#x4aa;" d="M1117 438q-13 -101 -52 -185.5t-101.5 -145t-148 -94t-190.5 -33.5q-90 0 -163.5 25.5t-131 70.5t-99 106t-69 133t-41 151t-14.5 160v203q1 81 14.5 160t41 151t69 133.5t99 106.5t130.5 70.5t164 25.5q109 0 195 -33.5t148 -95t99.5 -147.5t49.5 -190h-185 q-9 66 -31 123t-59 100t-90.5 67.5t-126.5 24.5q-66 0 -116.5 -21.5t-87 -58.5t-61 -86t-39.5 -104t-21.5 -112.5t-6.5 -111.5v-205q0 -54 6.5 -111.5t21.5 -113t39 -104.5t61 -86.5t87 -59t117 -21.5q73 0 126.5 23t90.5 64.5t59 98t31 122.5h185zM702 -455h-185v513h185 v-513z" />
<glyph unicode="&#x4ab;" d="M635 130q50 0 97.5 16t84.5 44.5t59.5 67t23.5 83.5h175q-1 -72 -37.5 -137.5t-97.5 -115t-140 -79t-165 -29.5q-123 0 -215 44t-153.5 118.5t-92.5 172t-31 205.5v42q0 107 31 205t92.5 172.5t153.5 118.5t215 44q96 0 176.5 -30.5t139 -83t91.5 -124.5t33 -154h-175 q-1 49 -21.5 92.5t-55.5 76.5t-83.5 52t-104.5 19q-86 0 -144.5 -34.5t-94.5 -90t-51.5 -124.5t-15.5 -139v-42q0 -71 15.5 -140.5t51 -125t94 -90t145.5 -34.5zM722 -455h-185v513h185v-513z" />
<glyph unicode="&#x4ac;" d="M1156 1298h-450v-1298h-180v1298h-450v158h1080v-158zM843 -359h-185v513h185v-513z" />
<glyph unicode="&#x4ad;" d="M1147 932h-432v-932h-186v932h-425v150h1043v-150zM852 -359h-185v513h185v-513z" />
<glyph unicode="&#x4ae;" d="M603 725l332 731h210l-453 -913l-3 -543h-172l-3 543l-453 913h211z" />
<glyph unicode="&#x4af;" d="M984 1082h190l-458 -1035v-463h-186v470l-459 1028h190l340 -784l24 -97l26 97z" />
<glyph unicode="&#x4b0;" d="M923 530h-231l-3 -530h-172l-3 530h-228v151h159l-384 775h211l331 -731l332 731h210l-385 -775h163v-151z" />
<glyph unicode="&#x4b1;" d="M945 -11h-229v-405h-186v405h-222v151h183l-420 942h190l340 -784l24 -97l26 97l333 784h190l-417 -942h188v-151z" />
<glyph unicode="&#x4b2;" d="M625 885l314 571h218l-423 -722l433 -734h-216l-322 582l-323 -582h-219l434 734l-423 722h217zM1255 -359h-185v513h185v-513z" />
<glyph unicode="&#x4b3;" d="M621 681l289 401h217l-403 -535l414 -547h-214l-299 412l-299 -412h-216l414 547l-403 535h214zM1142 -359h-185v513h185v-513z" />
<glyph unicode="&#x4b4;" d="M326 1304h-269v151h269v1h185v-1h238v-151h-238v-1153h365v1305h185v-1300h145l-18 -507h-165v351h-697v1304z" />
<glyph unicode="&#x4b5;" d="M284 931h-232v151h645v-151h-228v-780h381v931h185v-931h128l-18 -472h-166v321h-695v931z" />
<glyph unicode="&#x4b6;" d="M1063 1456v-1456h-185v603q-33 -12 -66 -21t-68.5 -16t-76 -10.5t-88.5 -3.5q-97 0 -173 24.5t-128 78.5t-79.5 139t-27.5 206v456h185v-456q0 -85 13.5 -141.5t41 -91t69.5 -49t99 -14.5q83 0 155 14.5t144 38.5v699h185zM1200 -359h-185v513h185v-513z" />
<glyph unicode="&#x4b7;" d="M1063 0h-185v395q-68 -17 -140.5 -26t-157.5 -9q-100 0 -181 25t-138.5 75.5t-88.5 127t-31 179.5v315h185v-315q1 -133 66.5 -194t187.5 -61q81 0 155 9t143 26v535h185v-1082zM1200 -359h-185v513h185v-513z" />
<glyph unicode="&#x4b8;" d="M678 309h-149v700h149v-700zM1063 1456v-1456h-185v603q-33 -12 -66 -21t-68.5 -16t-76 -10.5t-88.5 -3.5q-97 0 -173 24.5t-128 78.5t-79.5 139t-27.5 206v456h185v-456q0 -85 13.5 -141.5t41 -91t69.5 -49t99 -14.5q83 0 155 14.5t144 38.5v699h185z" />
<glyph unicode="&#x4b9;" d="M687 211h-150v566h150v-566zM1068 0h-185v395q-68 -17 -140.5 -26t-157.5 -9q-100 0 -181 25t-138.5 75.5t-88.5 127t-31 179.5v315h185v-315q1 -133 66.5 -194t187.5 -61q81 0 155 9t143 26v535h185v-1082z" />
<glyph unicode="&#x4ba;" d="M227 0v1456h185v-605q33 12 65.5 21.5t68 16.5t76 10.5t88.5 3.5q97 0 173 -24.5t128.5 -78.5t80 -139t27.5 -206l-1 -455h-185v455q0 85 -13.5 141.5t-41 91t-69.5 49t-99 14.5q-83 0 -155 -14.5t-143 -38.5v-698h-185z" />
<glyph unicode="&#x4bb;" d="M359 921q58 85 143 132.5t191 48.5q85 0 154.5 -24.5t118.5 -76.5t75.5 -131.5t26.5 -188.5v-681h-185v683q0 133 -63.5 198t-181.5 64q-89 0 -161.5 -43.5t-117.5 -115.5v-786h-185v1536h185v-615z" />
<glyph unicode="&#x4bc;" d="M810 -22q-124 0 -219.5 44t-160.5 122.5t-98.5 186t-33.5 235.5v144q-65 12 -113.5 43.5t-81 79t-49 110.5t-16.5 138h149q1 -84 27 -144t84 -85q0 144 35 259t96 196t143.5 124.5t177.5 43.5q213 0 312 -149.5t99 -435.5v-188h-678v-136q0 -90 18 -169.5t57.5 -139 t101.5 -94.5t150 -35q47 0 85.5 8t71 21t59 28t48.5 29l47 -136q-15 -12 -41.5 -29.5t-64.5 -33t-89 -26.5t-116 -11zM483 834h493v112q0 78 -10.5 146.5t-36 119.5t-69 81t-110.5 30q-127 0 -197 -121.5t-70 -351.5v-16z" />
<glyph unicode="&#x4bd;" d="M766 -20q-110 0 -197.5 40.5t-148.5 113t-94 171.5t-33 216v1q-128 23 -191.5 112.5t-63.5 231.5h148q1 -77 28 -130.5t86 -74.5q15 97 55 178.5t98 140t130.5 90.5t152.5 32q107 0 186.5 -36.5t131.5 -101t77.5 -153.5t25.5 -194v-120h-678q3 -76 22 -142.5t55 -116.5 t88.5 -79t121.5 -29q100 0 169.5 31.5t117.5 77.5l74 -124q-24 -25 -57.5 -49t-78 -43t-100.5 -31t-125 -12zM736 950q-50 0 -92 -23t-74 -63.5t-54 -95.5t-31 -119h487v24q0 54 -14 104t-43 88.5t-73.5 61.5t-105.5 23z" />
<glyph unicode="&#x4be;" d="M810 -22q-124 0 -219.5 44t-160.5 122.5t-98.5 186t-33.5 235.5v144q-65 12 -113.5 43.5t-81 79t-49 110.5t-16.5 138h149q1 -84 27 -144t84 -85q0 144 35 259t96 196t143.5 124.5t177.5 43.5q213 0 312 -149.5t99 -435.5v-188h-678v-136q0 -90 18 -169.5t57.5 -139 t101.5 -94.5t150 -35q47 0 85.5 8t71 21t59 28t48.5 29l47 -136q-15 -12 -41.5 -29.5t-64.5 -33t-89 -26.5t-116 -11zM483 834h493v112q0 78 -10.5 146.5t-36 119.5t-69 81t-110.5 30q-127 0 -197 -121.5t-70 -351.5v-16zM894 -453h-185v513h185v-513z" />
<glyph unicode="&#x4bf;" d="M766 -20q-110 0 -197.5 40.5t-148.5 113t-94 171.5t-33 216v1q-128 23 -191.5 112.5t-63.5 231.5h148q1 -77 28 -130.5t86 -74.5q15 97 55 178.5t98 140t130.5 90.5t152.5 32q107 0 186.5 -36.5t131.5 -101t77.5 -153.5t25.5 -194v-120h-678q3 -76 22 -142.5t55 -116.5 t88.5 -79t121.5 -29q100 0 169.5 31.5t117.5 77.5l74 -124q-24 -25 -57.5 -49t-78 -43t-100.5 -31t-125 -12zM736 950q-50 0 -92 -23t-74 -63.5t-54 -95.5t-31 -119h487v24q0 54 -14 104t-43 88.5t-73.5 61.5t-105.5 23zM858 -453h-185v513h185v-513z" />
<glyph unicode="&#x4c0;" d="M174 1456h880v-161h-349v-1135h349v-160h-880v160h341v1135h-341v161z" />
<glyph unicode="&#x4c1;" d="M763 651h-54v-651h-183v651h-62l-205 -651h-230l269 727l-230 729h215l174 -653h69v653h183v-653h62l173 653h216l-232 -727l270 -729h-229zM926 1866q0 -59 -21 -108.5t-60 -84.5t-94 -54.5t-123 -19.5q-69 0 -124 19.5t-94 54.5t-60.5 84.5t-21.5 108.5h150 q0 -30 9 -57.5t27 -47.5t46 -32t68 -12q39 0 66.5 12t45.5 32t27 47.5t9 57.5h150z" />
<glyph unicode="&#x4c2;" d="M757 470h-58v-470h-185v470h-59l-215 -470h-223l297 563l-262 519h214l189 -448h59v448h185v-448h59l190 448h214l-264 -519l298 -563h-224zM901 1523q0 -59 -21 -108.5t-60 -84.5t-94 -54.5t-123 -19.5q-69 0 -124 19.5t-94 54.5t-60.5 84.5t-21.5 108.5h150 q0 -30 9 -57.5t27 -47.5t46 -32t68 -12q39 0 66.5 12t45.5 32t27 47.5t9 57.5h150z" />
<glyph unicode="&#x4c3;" d="M714 821q108 -15 192 -61.5t141 -119.5t87 -171.5t30 -217.5q0 -131 -30.5 -232t-89.5 -170.5t-146.5 -106t-202.5 -36.5l-2 146q80 0 134.5 29t88.5 81.5t48.5 125.5t14.5 163q-1 99 -24 176t-68.5 130t-115 81t-162.5 28h-224v-666h-185v1456h185v-628h142l411 628h215 z" />
<glyph unicode="&#x4c4;" d="M687 612q86 -14 157.5 -48t122.5 -88.5t79.5 -129.5t28.5 -171q0 -56 -21 -124t-65 -130.5t-113.5 -111.5t-166.5 -67l-49 146q63 16 106.5 44t71.5 64.5t40.5 82t12.5 96.5q0 76 -25 130.5t-68.5 89t-103 50.5t-130.5 16h-199v-461h-185v1082h185v-458h119l376 458h224z " />
<glyph unicode="&#x4c5;" d="M1067 1456v-1456h-185v1304h-421l-2 -624q0 -162 -19 -288.5t-61.5 -213.5t-111.5 -132.5t-169 -45.5h-51v151h40q102 0 144.5 134.5t42.5 394.5l4 776h789zM1252 5q0 -47 -11.5 -98.5t-34 -102t-54.5 -96.5t-74 -82l-115 63q48 70 68 149t20 164v179h201v-176z" />
<glyph unicode="&#x4c6;" d="M1062 1082v-1082h-186v929h-398l-1 -310q0 -148 -18 -263t-60 -194t-113 -120.5t-177 -41.5h-54l3 165l41 1q57 0 94.5 28.5t59 85t30 141.5t8.5 198l2 463h769zM1247 5q0 -47 -11.5 -98.5t-34 -102t-54.5 -96.5t-74 -82l-115 63q48 70 68 149t20 164v179h201v-176z" />
<glyph unicode="&#x4c7;" d="M367 1456v-660h497v660h185v-1545q0 -82 -21 -146.5t-61.5 -109.5t-99.5 -68.5t-135 -23.5q-29 0 -55 4t-55 14l14 147q8 -3 21.5 -5.5t28 -4t27.5 -2.5t19 -1q65 0 98.5 54.5t33.5 141.5v734h-497v-645h-185v1456h185z" />
</font>
</defs>
</svg>
